<?xml version="1.0" standalone="no"?>
<!DOCTYPE svg PUBLIC "-//W3C//DTD SVG 1.1//EN" "http://www.w3.org/Graphics/SVG/1.1/DTD/svg11.dtd" >
<svg xmlns="http://www.w3.org/2000/svg">
<metadata>
This is a custom SVG font generated by IcoMoon.
<iconset id="Flat-UI-Icons" name="Flat UI Icons" href="http://designmodo.com/flat" grid="16"></iconset><author name="Sergey Shmidt" href="http://designmodo.com"></author><license name="Attribution-NonCommercial-NoDerivs 3.0 Unported" href="http://creativecommons.org/licenses/by-nc-nd/3.0/"></license>
</metadata>
<defs>
<font id="Flat-UI-Icons" horiz-adv-x="512" >
<font-face units-per-em="512" ascent="480" descent="-32" />
<missing-glyph horiz-adv-x="512" />
<glyph class="hidden" unicode="&#xf000;" d="M0,480L 512 -32L0 -32 z" horiz-adv-x="0" />
<glyph unicode="&#xe000;" d="M 448,127.808L 256,384L 64,128L 448,127.808z"  />
<glyph unicode="&#xe001;" d="M 447.744,96.064L 64,96.064 L 255.872,288L 447.744,96.064z"  />
<glyph unicode="&#xe002;" d="M 64,416l 384-224.032L 64-31.968L 64,416 z"  />
<glyph unicode="&#xe003;" d="M 448-31.968L 64,191.968L 448,416L 448-31.968 z"  />
<glyph unicode="&#xe004;" d="M 64,320l 192-256.192L 448,320L 64,320 z"  />
<glyph unicode="&#xe016;" d="M 256,480C 114.624,480,0,365.376,0,224c0-141.344, 114.624-256, 256-256c 141.408,0, 256,114.624, 256,256C 512,365.376, 397.408,480, 256,480z M 288.384,97.568
			c0-18.528-14.496-33.536-32.384-33.536s-32.384,15.008-32.384,33.536L 223.616,254.112 C 223.616,272.64, 238.112,287.648, 256,287.648S 288.384,272.64, 288.384,254.112L 288.384,97.568 z
			 M 256,320.16c-17.888,0-32.384,14.304-32.384,31.936S 238.112,383.968, 256,383.968s 32.384-14.272, 32.384-31.904S 273.888,320.16, 256,320.16z"  />
<glyph unicode="&#xe017;" d="M 256,480C 114.624,480,0,365.376,0,224c0-141.376, 114.624-256, 256-256c 141.376,0, 256,114.624, 256,256C 512,365.376, 397.376,480, 256,480z M 256,64.032
			c-17.888,0-32.384,14.272-32.384,31.904c0,17.6, 14.496,31.904, 32.384,31.904c 17.888,0, 32.384-14.304, 32.384-31.904
			C 288.384,78.304, 273.888,64.032, 256,64.032z M 288.384,193.888C 288.384,175.36, 273.888,160.352, 256,160.352c-17.888,0-32.384,15.040-32.384,33.536L 223.616,350.432 
			c0,18.528, 14.496,33.536, 32.384,33.536c 17.888,0, 32.384-15.040, 32.384-33.536L 288.384,193.888 z"  />
<glyph unicode="&#xe018;" d="M 256-32c-141.376,0-256,114.624-256,256c0,141.344, 114.624,256, 256,256c 141.376,0, 256-114.624, 256-256C 512,82.624, 397.376-32, 256-32z M 256,64.032
	c 17.888,0, 32.384,14.272, 32.384,31.904c0,17.6-14.496,31.904-32.384,31.904c-17.888,0-32.384-14.304-32.384-31.904
	C 223.616,78.304, 238.112,64.032, 256,64.032z M 325.376,362.144C 308.416,376.096, 284.256,383.872, 255.36,383.872c-21.28,0-39.456-3.84-55.072-10.080
	C 192,370.432, 165.472,353.952, 159.968,349.344l 16.192-24.16c 2.656-4.672, 6.976-7.040, 12.96-7.040c 2.496,0, 5.312,0.992, 8.48,2.944
	c 2.304,1.44, 20.544,10.848, 28.256,13.184c 16.16,4.8, 33.92,2.848, 42.080,0.32c 11.136-3.424, 19.2-9.952, 23.68-18.88
	c 2.944-5.888, 6.688-22.080-2.112-37.216C 282.176,265.952, 270.72,256.416, 258.080,247.968C 251.328,243.36, 245.056,238.656, 239.392,233.76
	c-0.256,0-0.896-0.48-2.336-1.76C 237.76,232.608, 238.688,233.152, 239.392,233.76C 240.992,233.824, 224,212.096, 224,192c0-21.44,0-32,0-32l 64,0 L 288,192 
	c0,16.64, 8.064,25.984, 8.224,28.352c 5.504,3.936, 30.528,23.072, 36.48,29.952C 343.808,263.104, 352,280, 352,303.808
	C 352,328.224, 342.304,348.224, 325.376,362.144z"  />
<glyph unicode="&#xe019;" d="M 448,480L 64,480 C 28.672,480,0,451.328,0,416l0-384 c0-35.328, 28.672-64, 64-64l 384,0 c 35.328,0, 64,28.672, 64,64L 512,416 C 512,451.328, 483.328,480, 448,480z M 192,447.968
			c 17.664,0, 32-14.304, 32-31.968c0-17.696-14.336-32-32-32S 160,398.304, 160,416C 160,433.664, 174.336,447.968, 192,447.968z M 96,447.968c 17.664,0, 32-14.304, 32-31.968
			c0-17.696-14.336-32-32-32S 64,398.304, 64,416C 64,433.664, 78.336,447.968, 96,447.968z M 448.032,32L 64,32 L 64,352 l 384.032,0 L 448.032,32 z"  />
<glyph unicode="&#xe01a;" d="M 469.376,383.872l-53.344,0L 416.032,437.184 c0,23.552-19.104,42.656-42.656,42.656L 42.656,479.84 c-23.552,0-42.656-19.104-42.656-42.656l0-330.336 
	c0-23.584, 18.624-42.688, 41.568-42.688l 54.432,0 l0-53.344 c0-23.552, 18.624-42.656, 41.568-42.656l 332.896,0 c 22.976,0, 41.6,19.104, 41.6,42.656L 512.064,341.184 
	C 512.032,364.736, 492.928,383.872, 469.376,383.872z M 192,447.808c 17.664,0, 32-14.304, 32-31.968c0-17.696-14.336-32-32-32s-32,14.304-32,32
	C 160,433.504, 174.336,447.808, 192,447.808z M 96,447.808c 17.664,0, 32-14.304, 32-31.968c0-17.696-14.336-32-32-32s-32,14.304-32,32C 64,433.504, 78.336,447.808, 96,447.808z
	 M 64,127.84l-0.032,224L 352,351.84 l0-224 L 64,127.84 z M 448,31.84L 160,31.84 l0,32.32 l 214.432,0 c 22.976,0, 41.6,19.104, 41.6,42.688L 416.032,255.84 L 448,255.84 L 448,31.84 z"  />
<glyph unicode="&#xe02d;" d="M 96.48,192.384L 320.064,416l 64-65.504L 223.488,191.488l 160.576-160.448l-64.128-64.128L 96.48,192.384z"  />
<glyph unicode="&#xe02e;" d="M 384,95.968c-60.8,0-98.944,34.368-128,72.224C 226.944,130.336, 188.8,95.968, 128,95.968C 76.576,95.968,0,130.080,0,224c0,93.888, 76.576,128, 128,128
	c 60.8,0, 98.944-34.336, 128-72.224C 285.056,317.664, 323.2,352, 384,352c 51.456,0, 128-34.112, 128-128C 512,130.080, 435.456,95.968, 384,95.968z M 128,288
	C 113.184,287.744, 64,282.432, 64,224c0-60.928, 53.312-64, 64-64c 39.136,0, 61.632,23.904, 89.376,64C 189.632,264.064, 167.136,288, 128,288z M 294.624,224
	c 27.712-40.064, 50.176-63.936, 89.216-64C 399.008,160.224, 448,165.632, 448,224c0,60.928-53.312,64-64,64C 344.864,288, 322.368,264.064, 294.624,224z"  />
<glyph unicode="&#xe02f;" d="M 400,256c-11.488,0-29.664,0-48,0L 352,192 c 11.328,0, 22.4,0, 32,0c 6.048,0, 11.648,0, 16,0c 61.856,0, 112-50.144, 112-112S 461.856-32, 400-32
	S 288,18.112, 288,80c0,11.488,0,29.632,0,48L 224,128 c0-11.328,0-22.432,0-32c0-6.048,0-11.616,0-16C 224,18.112, 173.856-32, 112-32S0,18.112,0,80
	S 50.144,192, 112,192C 123.488,192, 141.664,192, 160,192L 160,256 C 148.704,256, 137.568,256, 128,256C 121.952,256, 116.384,256, 112,256C 50.144,256,0,306.112,0,368C0,429.856, 50.144,480, 112,480
	S 224,429.856, 224,368C 224,356.512, 224,338.336, 224,320l 64,0 c0,11.296,0,22.432,0,32c0,6.048,0,11.616,0,16C 288,429.856, 338.144,480, 400,480S 512,429.856, 512,368
	C 512,306.112, 461.856,256, 400,256z M 160,368C 160,394.496, 138.496,416, 112,416S 64,394.496, 64,368C 64,341.472, 85.504,320, 112,320C 115.872,320, 121.76,320, 128,320c 14.784,0, 32,0, 32,0
	S 160,354.528, 160,368z M 160,96c0,14.752,0,32,0,32s-34.528,0-48,0C 85.504,128, 64,106.496, 64,80S 85.504,32, 112,32S 160,53.504, 160,80
	C 160,83.872, 160,89.76, 160,96z M 352,80c0-26.496, 21.504-48, 48-48s 48,21.504, 48,48S 426.496,128, 400,128c-3.872,0-9.76,0-16,0
	c-14.784,0-32,0-32,0S 352,93.44, 352,80z M 288,256L 224,256 L 224,192 l 64,0 L 288,256 z M 400,416C 373.504,416, 352,394.496, 352,368c0-3.872,0-9.728,0-16c0-14.816,0-32,0-32
	s 34.528,0, 48,0C 426.496,320, 448,341.472, 448,368C 448,394.496, 426.496,416, 400,416z"  />
<glyph unicode="&#xe030;" d="M 400.992,203.2c-14.336,8.832-32.704,3.616-40.96-11.68C 359.744,191.008, 359.744,190.4, 359.456,189.888L 358.72,190.368
	C 337.728,153.152, 299.872,128, 256.128,128s-81.568,25.152-102.592,62.368L 152.832,189.952C 152.48,190.752, 152.48,191.68, 152.032,192.512
	C 143.744,207.776, 125.376,213.024, 111.008,204.192S 91.744,175.776, 100.032,160.512c 0.64-1.12, 1.632-1.824, 2.336-2.848l-0.544-0.352
	c 26.56-47.104, 71.552-80.8, 124.288-90.304L 226.112,32 L 166.080,32 c-16.576,0-30.016-14.336-30.016-32c0-17.696, 13.44-32, 30.016-32l 180.064,0 
	c 16.608,0, 30.016,14.304, 30.016,32c0,17.664-13.408,32-30.016,32L 286.144,32 l0,34.976 c 52.736,9.504, 97.728,43.264, 124.288,90.336L 410.24,157.44
	c 0.544,0.736, 1.312,1.216, 1.728,2.048C 420.288,174.816, 415.36,194.368, 400.992,203.2z M 256.128,160c 49.728,0, 90.016,42.976, 90.016,96L 346.144,384 
	c0,53.024-40.32,96-90.016,96C 206.4,480, 166.080,437.024, 166.080,384l0-128 C 166.080,202.976, 206.4,160, 256.128,160z"  />
<glyph unicode="&#xe005;" d="M 255.872,128.064L 64,320l 383.744,0 L 255.872,128.064z"  />
<glyph unicode="&#xe006;" d="M 256,480C 114.624,480,0,365.408,0,224.032C0,82.624, 114.624-32, 256-32c 141.376,0, 256,114.624, 256,256.032C 512,365.408, 397.376,480, 256,480z M 421.44,276.064
			l-183.648-183.616c-3.744-3.744-9.856-3.744-13.568,0l-27.136,27.392c-3.712,3.776-9.856,9.952-13.568,13.696L 120.352,199.936
			C 118.496,201.792, 117.504,204.416, 117.504,206.88c0,2.496, 0.992,4.864, 2.848,6.752l 27.68,24.96c 1.888,1.92, 4.384,2.816, 6.848,2.816
			c 2.432-0.032, 4.864-0.992, 6.72-2.816l 62.624-63.936c 3.744-3.808, 9.824-3.808, 13.568,0l 142.944,142.56c 3.712,3.744, 9.856,3.744, 13.568,0
			l 27.168-27.456C 425.184,286.016, 425.184,279.84, 421.44,276.064z"  />
<glyph unicode="&#xe007;" d="M 474.272,191.424c 50.24,51.392, 50.176,134.656,0,186.016c-25.696,26.24-59.488,39.072-93.12,38.496C 334.080,415.168, 256.48,351.456, 256.48,351.456
	S 176.672,416.064, 128.48,416C 95.616,415.936, 62.784,403.072, 37.728,377.472c-50.208-51.392-50.24-134.624,0-186.016L 256-31.712L 474.272,191.424z"  />
<glyph unicode="&#xe008;" d="M 272.064,216.032c-43.936,0-79.552,36.864-79.552,82.4c0,45.568, 35.616,82.432, 79.552,82.432S 351.616,344, 351.616,298.432
	C 351.616,252.928, 316,216.032, 272.064,216.032 M 272.064,480.192c-97.248,0-176.064-81.664-176.064-182.4c0-95.136, 79.744-217.888, 132.992-277.632
	c 19.904-22.272, 43.072-52.352, 43.072-52.352s 24.896,30.176, 46.24,53.152c 53.184,57.248, 129.824,172.224, 129.824,276.8
	C 448.128,398.528, 369.312,480.192, 272.064,480.192"  />
<glyph unicode="&#xe009;" d="M 448,159.968L 288,159.968 L 288,0 c0-17.696-14.304-32-32-32L 224-32 c-17.664,0-32,14.304-32,32L 192,159.968 L 32,159.968 C 14.336,159.968,0,174.336,0,192L0,224.032 
	c0,17.664, 14.336,31.936, 32,31.936l 160,0 L 192,416 c0,17.664, 14.336,32, 32,32l 32,0 c 17.696,0, 32-14.336, 32-32l0-160.032 l 160,0 c 17.696,0, 32-14.272, 32-31.936L 480,192 
	C 480,174.336, 465.696,159.968, 448,159.968z"  />
<glyph unicode="&#xe00a;" d="M 461.568,411.296c-6.176,6.272-16.384,6.272-22.56,0l-238.080-237.248c-6.24-6.272-16.416-6.272-22.624,0L 73.984,280.416
	C 70.912,283.52, 66.848,285.12, 62.816,285.152c-4.128,0-8.288-1.504-11.424-4.736l-46.080-41.504C 2.24,235.776, 0.576,231.84, 0.576,227.744
	c0-4.16, 1.664-8.512, 4.736-11.616l 105.184-110.496c 6.208-6.24, 16.416-16.512, 22.624-22.816l 45.216-45.632c 6.208-6.24, 16.384-6.24, 22.624,0
	l 305.856,305.664c 6.24,6.24, 6.24,16.544,0,22.816L 461.568,411.296z"  />
<glyph unicode="&#xe00b;" d="M 443.904,366.016c 6.24-6.208, 6.24-16.416,0-22.624L 319.456,218.88c-6.176-6.208-6.176-16.416,0-22.656l 124.384-124.544
	c 6.24-6.208, 6.24-16.416,0-22.624l-45.312-45.216c-6.176-6.208-16.384-6.208-22.624,0L 251.584,128.384c-6.208,6.208-16.416,6.208-22.624,0
	l-124.448-124.448c-6.208-6.24-16.416-6.24-22.624,0l-45.248,45.312c-6.208,6.176-6.208,16.384,0,22.624l 124.48,124.448
	c 6.208,6.208, 6.208,16.416,0,22.656L 36.736,343.488c-6.208,6.24-6.208,16.416,0,22.624l 45.28,45.248c 6.208,6.208, 16.416,6.208, 22.624,0
	l 124.32-124.512c 6.208-6.24, 16.416-6.24, 22.624-0.032l 124.416,124.48c 6.24,6.176, 16.448,6.176, 22.624,0L 443.904,366.016z"  />
<glyph unicode="&#xe00c;" d="M 495.968,415.68L 16.032,415.68 c-8.8,0-16-7.68-16-17.088l0-62.336 c0-9.024, 7.2-16.416, 16-16.416l 479.936,0 c 8.8,0, 16,7.36, 16,16.416
			L 511.968,398.592 C 511.968,408, 504.768,415.68, 495.968,415.68z M 495.968,255.68L 16.032,255.68 c-8.8,0-16-7.68-16-17.12l0-62.304 
			c0-9.056, 7.2-16.416, 16-16.416l 479.936,0 c 8.8,0, 16,7.36, 16,16.416L 511.968,238.592 C 511.968,248, 504.768,255.68, 495.968,255.68z M 495.968,95.68
			L 16.032,95.68 c-8.8,0-16-7.68-16-17.12l0-62.304 c0-8.992, 7.2-16.384, 16-16.384l 479.936,0 c 8.8,0, 16,7.36, 16,16.384l0,62.304 
			C 511.968,88, 504.768,95.68, 495.968,95.68z"  />
<glyph unicode="&#xe00d;" d="M 480.256,355.136c-10.88,17.984-24.288,35.584-40.672,51.904c-16.608,16.448-34.496,29.984-52.8,40.8L 418.944,480c0,0, 46.528,0, 69.824-23.264
	C 512,433.44, 512,386.912, 512,386.912L 480.256,355.136z M 193.6,64.384L 96.384,64.384 L 96.384,161.6 l 11.68,11.68c 19.776-9.28, 39.392-22.464, 57.088-40.16
	c 17.696-17.664, 30.848-37.344, 40.16-57.088L 193.6,64.384z M 453.376,328.256l-220-224.16c-11.36,18.816-25.344,37.152-42.496,54.176
	C 173.536,175.488, 154.848,189.632, 135.712,200.928l 224.576,220.448c 18.912-8.928, 37.728-21.472, 54.656-38.432S 444.448,347.232, 453.376,328.256z M 64,416l0-383.968 l 384,0 
	L 448,192 l 64,63.968l0-241.44 C 512-11.168, 491.2-32, 465.472-32L 46.528-32 C 20.832-32,0-11.168,0,14.528L0,433.44 C0,459.168, 20.832,480, 46.528,480L 288,480 L 224,416L 64,416 z"  />
<glyph unicode="&#xe00e;" d="M 480.128,32.032l0-0.384 L 352,159.776l0-63.744 C 352,60.672, 323.328,32, 288,32L 64,32 c-35.328,0-64,28.672-64,64.032L0,319.968 C0,355.328, 28.672,384, 64,384l 224,0 
	c 35.328,0, 64-28.672, 64-64.032L 352,255.68 l 128,128L 480,384 c 17.696,0, 32-14.304, 32-32l0-288 C 512,46.368, 497.728,32.096, 480.128,32.032z"  />
<glyph unicode="&#xe00f;" d="M 448.512,384l-73.92,0 l-21.44,45.312C 348.256,439.968, 330.624,448, 313.472,448L 191.072,448 C 173.92,448, 156.288,439.968, 151.36,429.312L 130.432,384L 64,384 C0,384,0,352,0,352
			l0-320 c0,0,0-32, 64-32l 384,0 c 64,0, 64,32, 64,32L 512,352 C 512,352, 512,384, 448.512,384z M 256,64.032c-70.688,0-128,57.248-128,127.936C 128,262.688, 185.312,320, 256,320s 128-57.312, 128-128.032
			C 384,121.28, 326.688,64.032, 256,64.032z M 256,272C 211.808,272, 176,236.192, 176,192c0-44.16, 35.808-80, 80-80s 80,35.84, 80,80
			C 336,236.192, 300.192,272, 256,272z"  />
<glyph unicode="&#xe010;" d="M 246.592,448C 222.4,448, 215.072,434.080, 215.072,434.080S 123.52,325.984, 81.792,325.984c-41.088,0-40.672,0-40.672,0C 18.4,325.984,0,307.776,0,285.344
			l0-122.048 c0-22.464, 18.4-40.64, 41.088-40.64c0,0, 0.672,0, 41.088,0c 40.512,0, 134.784-109.44, 134.784-109.44c 7.456-7.744, 17.952-12.576, 29.632-12.576
			c 22.688,0, 41.088,18.176, 41.088,40.64L 287.68,407.328 C 287.68,429.792, 269.28,448, 246.592,448z M 421.984,408.864l-23.712-35.488
			c 43.328-35.2, 71.104-88.864, 71.104-149.088s-27.744-113.92-71.104-149.056l 23.712-35.488C 476.704,82.688, 512,149.312, 512,224.288
			C 512,299.296, 476.704,365.888, 421.984,408.864z M 374.4,337.664l-23.936-35.84c 20.672-19.456, 33.696-46.88, 33.696-77.536
			c0-30.656-13.024-58.048-33.696-77.536l 23.936-35.808c 31.936,27.36, 52.288,68, 52.288,113.344C 426.688,269.696, 406.336,310.272, 374.4,337.664z"  />
<glyph unicode="&#xe011;" d="M 256.032,480C 114.688,480, 0.096,365.408, 0.096,224.032c0-141.408, 114.592-255.968, 255.936-255.968c 141.376,0, 255.968,114.56, 255.968,255.968
			C 512,365.408, 397.408,480, 256.032,480z M 339.488,134.24l-7.424-7.488c-6.208-6.176-16.672-6.496-23.232-0.64L 223.072,199.872
			C 216.512,205.728, 211.552,217.728, 211.968,226.496l 8.928,141.536C 221.344,376.832, 228.896,384, 237.728,384l 10.528,0 c 8.8,0, 16.352-7.168, 16.768-15.968
			l 7.328-115.904c 0.448-8.768, 5.6-21.344, 11.424-27.904l 56.384-66.784C 345.984,150.944, 345.728,140.448, 339.488,134.24z"  />
<glyph unicode="&#xe012;" d="M 256.032,400c-169.472,0-256.48-176.448-256.48-176.448s 65.664-176.48, 256.48-176.48c 172.736,0, 256.416,175.808, 256.416,175.808
			S 428.128,400, 256.032,400z M 256.416,113.248c-61.984,0-106.752,48.288-106.752,110.304c0,62.048, 44.768,110.272, 106.752,110.272
			c 61.952,0, 106.72-48.224, 106.72-110.272C 363.136,161.536, 318.336,113.248, 256.416,113.248z M 256.416,289.728c-35.392-0.064-64.064-30.72-64.064-66.176
			c0-35.424, 28.672-66.176, 64.064-66.176s 64.032,30.752, 64.032,66.176C 320.448,259.008, 291.808,289.824, 256.416,289.728z"  />
<glyph unicode="&#xe013;" d="M 228.928,84.032l 144.64-113.248c 2.368-1.888, 3.808-2.816, 5.184-2.816c 4,0, 5.248,2.752, 5.248,7.264l0,107.2 
	C 384,89.984, 388.992,96, 395.68,96l 52.576,0 c 63.744,0, 63.68,30.72, 63.68,30.72L 511.936,446.752 c0,0,0,33.28-63.936,33.28L 64.032,480.032 c-64,0-64-33.28-64-33.28L 0.032,126.72 
	c0,0-0.032-30.72, 64.224-30.72l 128,0 C 192.256,96, 219.040,95.264, 228.928,84.032z"  />
<glyph unicode="&#xe015;" d="M 512,13.376C 512-11.712, 491.2-32, 465.44-32L 319.808-32 l0,175.84 c0,26.528-19.008,48.064-42.528,48.064L 234.72,191.904 
	c-23.488,0-42.56-21.536-42.56-48.064L 192.16-32 L 46.528-32 C 20.832-32,0-11.712,0,13.376L0,252.864 c0,11.68, 4.672,22.24, 12.096,30.272L 11.616,284.064
	l 212.96,186.496c 17.152,12.576, 44.992,12.576, 62.144,0l 213.632-186.496L 500.128,282.88C 507.424,274.848, 512,264.416, 512,252.864L 512,13.376 z"  />
<glyph unicode="&#xe01b;" d="M 448-32l-96,0 l0,64 l 96.032,0 L 448.032,352 L 64,352 l0-320 l 96,0 l0-64 L 64-32 c-35.328,0-64,28.672-64,64L0,416 c0,35.328, 28.672,64, 64,64l 384,0 c 35.328,0, 64-28.672, 64-64l0-384 
	C 512-3.328, 483.328-32, 448-32z M 96,447.968C 78.304,447.968, 64,433.664, 64,416c0-17.696, 14.304-32, 32-32s 32,14.304, 32,32C 128,433.664, 113.696,447.968, 96,447.968z
	 M 192,447.968C 174.304,447.968, 160,433.664, 160,416c0-17.696, 14.304-32, 32-32s 32,14.304, 32,32C 224,433.664, 209.696,447.968, 192,447.968z M 135.968,100.352
	c-11.104,11.616-11.104,30.432,0,42.080l 98.464,104.704c 3.072,3.232, 6.72,5.248, 10.56,6.72c 0.032,0.032, 0.096,0.032, 0.16,0.064
	c 2.944,1.12, 5.92,1.728, 8.992,1.856c 1.12,0.096, 2.208,0.192, 3.328,0.128C 258.848,255.808, 260.16,255.392, 261.472,255.104
	c 5.664-1.12, 11.136-3.36, 15.488-7.936l 98.432-104.704c 11.136-11.648, 11.136-30.464,0-42.080c-11.136-11.552-29.152-11.552-40.288,0L 288,160l0-159.968 
	C 288-17.056, 271.968-32, 255.68-32C 239.424-32, 224-17.056, 224,0.032L 224,160 l-47.744-59.648C 165.12,88.768, 147.104,88.768, 135.968,100.352z"  />
<glyph unicode="&#xe01c;" d="M 361.696,176.8c-5.664,5.728-7.552,16.352-4.192,23.648c0,0, 23.616,51.232, 23.616,88.864C 381.12,394.624, 295.904,480, 190.752,480
	s-190.4-85.376-190.4-190.656c0-105.312, 85.248-190.688, 190.4-190.688c 37.6,0, 88.704,23.68, 88.704,23.68c 7.328,3.392, 17.984,1.472, 23.616-4.224
	l 145.728-145.888c 5.728-5.696, 15.040-5.696, 20.672,0l 37.888,37.952c 5.728,5.728, 5.728,15.072,0,20.736L 361.696,176.8z M 190.752,186.688
	c-56.544,0-102.528,46.016-102.528,102.656c0,56.608, 46.016,102.656, 102.528,102.656s 102.496-46.048, 102.496-102.656C 293.248,232.704, 247.296,186.688, 190.752,186.688z"  />
<glyph unicode="&#xe01d;" d="M 256.512,298.144c 53.28,0, 96.512,40.672, 96.512,90.944C 352.992,439.296, 309.792,480, 256.512,480S 160,439.296, 160,389.088
			C 160,338.848, 203.232,298.144, 256.512,298.144z M 332.16,291.84C 310.88,277.12, 284.864,268.128, 256.512,268.128c-28.48,0-54.56,9.056-75.872,23.872
			C 94.016,273.344, 32,223.584, 32,164.992l0-129.44 c0-8.576, 7.2-15.552, 16-15.552l 32,0 c 8.8,0, 16,6.304, 16,14.048c0,4.48,0,100.928,0,100.928
			c0,8.32, 4.768,4.992, 10.688,4.992c 5.888,0, 10.656-4.512, 10.656-9.984l 0.16-89.984c 0.448-5.184, 4.8-42.208, 10.272-43.296
			c0,0, 33.28-28.672, 128.224-28.672c 95.616,0, 128.224,28.672, 128.224,28.672c 5.472,1.056, 9.856,38.080, 10.272,43.296l 0.16,89.984
			c0,5.504, 4.768,9.984, 10.688,9.984c 5.888,0, 10.656-4.512, 10.656-9.984c0,0,0-91.456,0-95.936c0-7.744, 7.2-14.048, 16-14.048l 32,0 
			c 8.8,0, 16,7.008, 16,15.552L 480,164.992 C 480,223.424, 418.304,273.056, 332.16,291.84z"  />
<glyph unicode="&#xe01e;" d="M 448,416C 422.752,416, 64,416, 64,416C 38.752,416,0,395.424,0,370.528l0-9.056 c0,0, 216.384-180.928, 256-180.928s 256,180.352, 256,180.352l0,9.6 
			C 512,395.424, 473.248,416, 448,416z M0,288.48l0-256.448 C0,32.032,0,0, 64,0l 384,0 c 64.096,0, 64,32.032, 64,32.032L 512,289.28 c0,0-182.080-162.496-256-162.496
			C 182.848,126.784,0,288.48,0,288.48z"  />
<glyph unicode="&#xe01f;" d="M 448-32L 64-32 c-17.664,0-32,14.304-32,32.032L 32,224 c0,17.664, 14.336,32, 32,32l 32,0 L 96,320 c0,88.352, 71.616,160, 160,160s 160-71.648, 160-160l0-64 l 32,0 c 17.696,0, 32-14.336, 32-32
	l0-223.968 C 480-17.696, 465.696-32, 448-32z M 352,320c0,52.992-42.976,96-96,96S 160,372.992, 160,320l0-64 l 192,0 L 352,320 z"  />
<glyph unicode="&#xe020;" d="M 383.936,377.504l-0.064-0.032c-0.448,0.32-0.8,0.768-1.312,1.12c-14.592,10.016-34.496,6.304-44.512-8.352
			c-9.984-14.656-6.24-34.656, 8.32-44.672C 346.752,325.248, 347.136,325.12, 347.488,324.928L 347.36,324.704C 388.8,295.68, 416,247.456, 416,192.832
			c0-88.768-71.648-160.736-160-160.736s-160,71.968-160,160.736C 96,247.456, 123.2,295.68, 164.64,324.704L 164.512,324.928c 0.352,0.192, 0.736,0.32, 1.12,0.608
			c 14.592,10.016, 18.304,30.016, 8.32,44.672C 163.936,384.864, 144.032,388.608, 129.44,378.56C 128.96,378.208, 128.576,377.792, 128.096,377.44L 128.064,377.504
			C 70.048,336.8, 32,269.344, 32,192.832c0-124.288, 100.288-225.088, 224-225.088s 224,100.8, 224,225.088C 480,269.344, 441.952,336.8, 383.936,377.504z M 256,160
			c 17.696,0, 32,14.304, 32,32L 288,415.968 C 288,433.664, 273.696,448, 256,448C 238.336,448, 224,433.664, 224,415.968L 224,192 C 224,174.304, 238.336,160, 256,160z"  />
<glyph unicode="&#xe021;" d="M0,207.968C 144,224, 224,304, 240,448c 16.032-144, 96.032-224, 240.064-240.032c-144.032-16-224.032-96-240.064-240C 224,111.968, 144,191.968,0,207.968z"  />
<glyph unicode="&#xe023;" d="M 160,288C 142.336,288, 128,273.696, 128,256s 14.336-32, 32-32s 32,14.304, 32,32S 177.664,288, 160,288z M 256,192
	c-17.664,0-32-14.304-32-32s 14.336-32, 32-32s 32,14.304, 32,32S 273.664,192, 256,192z M 160,192c-17.664,0-32-14.304-32-32s 14.336-32, 32-32s 32,14.304, 32,32S 177.664,192, 160,192z
	 M 448,447.968l-64,0 C 384,465.664, 369.696,480, 352,480s-32-14.336-32-32.032L 192,447.968 C 192,465.664, 177.664,480, 160,480S 128,465.664, 128,447.968L 64,447.968 C 28.672,447.968,0,419.328,0,384l0-320 
	c0-35.36, 28.672-64, 64-64l 384,0 c 35.328,0, 64,28.64, 64,64L 512,384 C 512,419.328, 483.328,447.968, 448,447.968z M 448,64L 64,64 L 64,384 l 64,0 c0-17.696, 14.336-32, 32-32s 32,14.304, 32,32l 128,0 
	c0-17.696, 14.304-32, 32-32s 32,14.304, 32,32l 64,0 L 448,64 z M 352,288c-17.696,0-32-14.304-32-32s 14.304-32, 32-32s 32,14.304, 32,32S 369.696,288, 352,288z M 256,288
	C 238.336,288, 224,273.696, 224,256s 14.336-32, 32-32s 32,14.304, 32,32S 273.664,288, 256,288z M 352,192c-17.696,0-32-14.304-32-32s 14.304-32, 32-32s 32,14.304, 32,32S 369.696,192, 352,192z"  />
<glyph unicode="&#xe024;" d="M 459.136,263.52c-8.672,1.28-17.984,9.152-20.672,17.504l-13.056,31.616c-4.064,7.776-3.136,19.936, 2.176,26.976l 21.056,28.096
	c 5.312,7.040, 4.864,18.176-0.992,24.768L 424.512,415.68c-6.56,5.856-17.76,6.272-24.8,0.992l-28.064-21.12
	c-7.072-5.248-19.2-6.24-27.008-2.144L 313.056,406.432C 304.64,409.088, 296.736,418.432, 295.552,427.168L 290.56,461.92
	C 289.312,470.624, 281.152,478.496, 272.384,479.392C 272.384,479.392, 266.976,480, 256,480S 239.616,479.392, 239.616,479.392C 230.848,478.496, 222.656,470.624, 221.44,461.92
	L 216.448,427.168C 215.232,418.432, 207.36,409.088, 198.944,406.432L 167.36,393.408C 159.584,389.312, 147.456,390.304, 140.416,395.552l-28.128,21.12
	C 105.28,421.984, 94.080,421.536, 87.488,415.68L 64.384,392.544C 58.56,385.952, 58.112,374.784, 63.392,367.744L 84.48,339.648c 5.28-7.040, 6.24-19.2, 2.144-26.976
	L 73.6,281.024C 70.912,272.672, 61.6,264.8, 52.896,263.52L 18.144,258.624C 9.408,257.344, 1.536,249.184, 0.64,240.416c0,0-0.576-5.44-0.576-16.416
	c0-10.976, 0.576-16.448, 0.576-16.448c 0.928-8.736, 8.8-16.896, 17.504-18.144l 34.752-4.928C 61.6,183.232, 70.912,175.328, 73.6,166.976l 13.056-31.616
	c 4.096-7.808, 3.136-19.904-2.144-26.944l-21.088-28.128c-5.28-7.072-6.56-16.64-2.816-21.248c 3.712-4.608, 14.432-16.032, 14.464-16.032
	c0-0.064, 3.616-3.36, 8-7.328c 4.384-4.032, 22.24-9.6, 29.28-4.32l 28.128,21.056c 7.040,5.312, 19.168,6.272, 26.944,2.176L 198.944,41.6
	c 8.416-2.72, 16.288-12, 17.504-20.736l 4.992-34.752c 1.216-8.672, 9.408-16.64, 18.144-17.536c0,0, 5.44-0.576, 16.416-0.576
	s 16.384,0.576, 16.384,0.576c 8.736,0.896, 16.928,8.832, 18.176,17.536l 4.992,34.752c 1.184,8.736, 9.056,18.016, 17.504,20.736l 31.552,12.992
	c 7.808,4.096, 19.936,3.136, 27.008-2.112l 28.128-21.12c 7.072-5.28, 18.176-4.832, 24.8,0.96l 23.136,23.168
	c 5.824,6.592, 6.24,17.76, 0.928,24.8l-21.056,28.128c-5.312,7.040-6.24,19.136-2.176,26.944l 13.056,31.616
	c 2.688,8.384, 12,16.256, 20.672,17.504l 34.752,4.928c 8.672,1.248, 16.576,9.408, 17.504,18.144c0,0, 0.576,5.44, 0.576,16.448
	c0,10.976-0.576,16.416-0.576,16.416c-0.928,8.768-8.8,16.928-17.504,18.208L 459.136,263.52z M 256,160c-35.328,0-64,28.672-64,64
	c0,35.36, 28.672,64, 64,64c 35.296,0, 64-28.672, 64-64C 320,188.672, 291.328,160, 256,160z"  />
<glyph unicode="&#xe025;" d="M 384,348.512L 384,348.512l 64,0 c 17.696,0, 32-14.336, 32-32l0-320 c0-17.696-14.304-32-32-32L 112-35.488 c-44.192,0-80,35.808-80,80L 32,396.48 
	c0,44.192, 35.808,80.032, 80,80.032L 448,476.512 c 17.696,0, 32-14.336, 32-32c0-17.696-14.304-32.032-32-32.032l-64,0 L 192,412.48 L 128,412.48 c-17.664,0-32-14.304-32-32s 14.336-32, 32-32l 64,0 l0-128 
	l 32,32l 32-32l0,128 L 384,348.48 z"  />
<glyph unicode="&#xe026;" d="M 32,32l0,96 l 64,0 l0-96.064 l 320,0 L 416,416 L 96,416 L 96,320 L 32,320 L 32,416 C 32,451.328, 60.672,480, 96,480l 320,0 C 451.36,480, 480,451.328, 480,416l0-384 c0-35.36-28.64-64-64-64L 96-32 
	C 60.672-32, 32-3.36, 32,32z M 164.384,344c 11.616,11.136, 30.432,11.136, 42.048,0l 104.704-98.4c 3.264-3.104, 5.248-6.784, 6.752-10.592
	c 0.032-0.064, 0.032-0.096, 0.064-0.16C 319.072,231.936, 319.68,228.928, 319.776,225.856C 319.904,224.736, 320,223.648, 319.904,222.496
	C 319.84,221.152, 319.392,219.872, 319.072,218.528C 317.984,212.896, 315.744,207.424, 311.136,203.040L 206.432,104.64c-11.616-11.136-30.432-11.136-42.048,0
	c-11.584,11.136-11.584,29.12,0,40.256L 224,192L 64,192 C 46.944,192, 32,208.032, 32,224.32C 32,240.576, 46.944,256, 64,256l 160,0 L 164.384,303.776
	C 152.768,314.848, 152.768,332.928, 164.384,344z"  />
<glyph unicode="&#xe027;" d="M 448,352l-32,0 l0-320 c0,0-0.992-64-64-64c0,0-159.008,0-224,0s-64,64-64,64L 64,352 L 32,352 C 14.336,352,0,366.336,0,384s 14.336,32, 32,32l 128,0 l 32,0 L 192,432 C 192,458.528, 213.472,480, 240,480
	C 266.496,480, 288,458.528, 288,432L 288,416 l 32,0 l 128,0 c 17.696,0, 32-14.304, 32-32S 465.696,352, 448,352z M 352,352L 128,352 l0-320 l 224,0 L 352,352 z M 192,320C 209.664,320, 224,305.664, 224,288l0-192 c0-17.696-14.336-32-32-32
	s-32,14.304-32,32L 160,288 C 160,305.664, 174.336,320, 192,320z M 288,320C 305.696,320, 320,305.664, 320,288l0-192 c0-17.696-14.304-32-32-32s-32,14.304-32,32L 256,288 C 256,305.664, 270.304,320, 288,320z"  />
<glyph unicode="&#xe028;" d="M 448,352c0,0-139.008,0.032-160,0.032S 243.008,416, 224,416S 64,416, 64,416C 28.672,416,0,387.36,0,352l0-320.032 c0-63.328, 64-64, 64-64l 384,0 c 35.328,0, 64,28.672, 64,64
			l0,256 C 512,323.328, 483.328,352, 448,352z M 448.032,31.968L 64,31.968 L 64,352 c0,0, 107.008,0, 127.008,0s 44.992-64, 64-64c 20,0, 193.024,0, 193.024,0L 448.032,31.968 z"  />
<glyph unicode="&#xe029;" d="M 447.712,480.032L 63.776,480.032 C 0.128,480.032,0,416,0,416l0-255.968 C0,160.032, 0.352,96, 64,96l 128,0 c0,0, 26.784-0.736, 36.672-11.968l 144.672-113.248
	c 2.368-1.888, 3.808-2.816, 5.216-2.816c 4,0, 5.184,2.752, 5.184,7.296l0,107.168 c0,7.552, 4.992,13.6, 11.712,13.6L 448,96.032 
	c 62.656,0, 64,64.032, 64,64.032L 512,416 C 512,416, 511.36,480.032, 447.712,480.032z M 448,160.032l-128,0 l0-64 l-82.304,64L 64,160.032 L 64,416 l 384,0 L 448,160.032 z"  />
<glyph unicode="&#xe02a;" d="M 437.024,405.024c-99.968,100-262.048,99.968-362.048,0c-99.968-99.936-99.968-262.048, 0.032-362.016
			c 99.968-99.968, 262.048-99.968, 362.016-0.032C 537.024,142.944, 537.024,305.056, 437.024,405.024z M 373.6,154.528
			c 13.76-13.76, 14.112-35.648, 0.864-48.928c-13.28-13.28-35.2-12.864-48.896,0.864L 256.032,175.968L 186.24,106.176
			c-13.76-13.728-35.648-14.112-48.896-0.864c-13.28,13.28-12.864,35.2, 0.832,48.928L 208,224.032L 138.176,293.856
			C 124.448,307.552, 124.064,329.44, 137.344,342.72C 150.592,356, 172.512,355.616, 186.24,341.888l 69.792-69.792l 69.536,69.536
			c 13.728,13.728, 35.616,14.112, 48.896,0.832c 13.248-13.28, 12.864-35.168-0.864-48.896L 304.096,224.032L 373.6,154.528z"  />
<glyph unicode="&#xe031;" d="M 256,480.032C 114.624,480.032,0,365.376,0,224c0-141.408, 114.624-256.032, 256-256.032S 512,82.592, 512,224C 512,365.376, 397.376,480.032, 256,480.032z
	 M 382.112,191.648L 288.416,191.648 l0-93.76 c0-18.496-14.496-33.536-32.384-33.536s-32.384,15.040-32.384,33.536l0,93.76 l-94.080,0 C 111.072,191.648, 96.032,206.112, 96.032,224
	s 15.040,32.384, 33.536,32.384l 94.080,0 l0,94.080 C 223.648,368.992, 238.144,384, 256.032,384s 32.384-15.008, 32.384-33.536l0-94.080 l 93.728,0 
	c 18.528,0, 33.536-14.528, 33.536-32.384S 400.672,191.648, 382.112,191.648z"  />
<glyph unicode="&#xe014;" d="M 448,31.936L 64,31.936 l0,384 l 160,0 l0,64 L 44.512,479.968C 19.936,479.968,0,460,0,435.424l0-422.976 c0-24.576, 19.936-44.512, 44.512-44.512l 422.976,0 
	c 24.576,0, 44.512,19.936, 44.512,44.512L 512,191.936 l-64,0 L 448,31.936 z M 512,448c0,7.328-3.040,13.76-7.36,19.136c-0.672,0.864-1.024,1.856-1.792,2.656
	c-0.096,0.064-0.128,0.192-0.192,0.288c-0.192,0.16-0.224,0.416-0.416,0.608c-2.048,2.048-4.576,3.264-6.976,4.64
	c-1.056,0.608-1.92,1.504-3.040,1.984c-4.352,1.888-8.96,2.688-13.632,2.56c-0.064,0-0.128,0.032-0.192,0.032l-156.512,0 
	C 303.392,479.936, 288.384,465.632, 288.384,448c0-17.6, 15.040-31.904, 33.568-31.904l 80.608,0 L 201.28,214.432c-12.416-12.384-12.416-32.384,0-44.736
	c 12.416-12.384, 32.512-12.384, 44.896,0l 201.984,201.76l0-81.6 c0-18.528, 14.304-33.536, 31.936-33.536C 497.728,256.32, 512,271.328, 512,289.856L 512,446.368 
	c0,0.32-0.16,0.576-0.16,0.864C 511.84,447.488, 512,447.744, 512,448z"  />
<glyph unicode="&#xe02b;" d="M 256,480C 114.61,480,0,365.369,0,223.957c0-141.369, 114.61-255.979, 256-255.979c 141.39,0, 256,114.61, 256,255.979C 512,365.369, 397.39,480, 256,480z
			 M 256,70.379c-84.814,0-153.6,68.764-153.6,153.579c0,84.857, 68.786,153.621, 153.6,153.621c 84.836,0, 153.6-68.764, 153.6-153.621C 409.6,139.143, 340.836,70.379, 256,70.379z"  />
<glyph unicode="&#xe032;" d="M 256,480C 114.61,480,0,365.412,0,224.021c0-141.412, 114.61-256.043, 256-256.043c 141.39,0, 256,114.631, 256,256.043C 512,365.412, 397.39,480, 256,480z
			 M 256,70.4c-84.814,0-153.6,68.786-153.6,153.621c0,84.793, 68.786,153.543, 153.6,153.543c 84.836,0, 153.6-68.764, 153.6-153.543C 409.6,139.186, 340.836,70.4, 256,70.4z M 256,300.8
			C 213.582,300.8, 179.2,266.418, 179.2,224.021C 179.2,181.582, 213.582,147.2, 256,147.2c 42.418,0, 76.8,34.382, 76.8,76.821C 332.8,266.418, 298.418,300.8, 256,300.8z"  />
<glyph unicode="&#xe033;" d="M 128,480l 256,0 c 70.713,0, 128-57.287, 128-128l0-256.021 c0-70.713-57.287-128-128-128L 128-32.021 c-70.677,0-128,57.287-128,128L0,352 C0,422.713, 57.323,480, 128,480z"  />
<glyph unicode="&#xe034;" d="M 384,480L 128,480 C 57.323,480,0,422.677,0,352l0-256.021 c0-70.713, 57.323-128, 128-128l 256,0 c 70.713,0, 128,57.287, 128,128L 512,352 C 512,422.677, 454.699,480, 384,480z M 421.433,276.046
			l-183.652-183.652c-3.74-3.74-9.849-3.74-13.568,0l-27.157,27.371c-3.74,3.783-9.849,9.963-13.568,13.724l-63.154,66.382
			c-1.849,1.892-2.837,4.473-2.837,6.933c0,2.503, 1.003,4.864, 2.837,6.756l 27.669,24.953c 1.87,1.913, 4.373,2.816, 6.855,2.816
			c 2.425,0, 4.864-0.946, 6.734-2.816l 62.62-63.9c 3.705-3.819, 9.828-3.819, 13.568,0l 142.948,142.514c 3.74,3.74, 9.828,3.74, 13.547,0
			l 27.157-27.392C 425.138,286.009, 425.138,279.787, 421.433,276.046z"  />
<glyph unicode="&#xe035;" d="M 346.484,277.364c-18.711,0-77.615,1.396-126.813,2.071c 15.244,50.595, 28.416,96.303, 33.257,128.884c 69.306,0, 154.554-0.698, 167.703-0.698
			c 21.481,0, 31.884,7.633, 39.494,27.020c 4.841,12.474, 14.545,30.487, 14.545,36.026c0,11.078-6.935,14.545-18.711,14.545c-31.884,0-124.719,3.468-207.919,3.468
			C 110.895,488.681,0,441.553,0,369.501c0-18.013, 7.633-30.487, 15.942-30.487c 2.071,0, 4.841,0.698, 6.935,2.769c 29.789,26.345, 56.832,62.371, 135.843,66.513
			c-16.64-38.097-34.653-90.065-50.595-144.826c-65.14-17.315-92.858-42.938-92.858-64.442c0-4.166, 3.468-6.935, 9.007-6.935c 15.942,0, 39.494,2.071, 66.537,5.539
			c-18.013-69.306-29.789-135.145-29.789-171.148c0-42.263, 0.698-67.212, 23.552-67.212c 38.819,0, 79.709,6.935, 79.709,40.89c0,63.767, 16.64,138.589, 36.026,209.268
			c 6.237,0.698, 12.474,0.698, 18.711,0.698c 18.013,0, 93.556-4.841, 105.332-4.841c 13.172,0, 19.409,7.633, 24.25,25.623c 2.769,11.078, 9.007,27.718, 9.007,33.257
			C 357.585,274.548, 353.42,277.364, 346.484,277.364z M 1316.841,131.119c-5.539,0-14.545-6.237-24.948-20.108c-22.179-29.114-81.082-63.767-97.722-63.767
			c-11.055,0-15.919,18.735-15.919,47.825c0,29.789, 5.539,94.231, 14.545,147.596c 20.108,0, 58.205-3.468, 69.306-3.468c 10.403,0, 19.409,38.819, 19.409,47.825
			c0,8.308-0.698,11.078-7.633,11.078c-15.244,0-36.724,0.698-68.608,1.396l 28.393,49.897c-6.935,29.114-15.22,56.134-45.033,56.134
			c-24.948,0-48.524-44.358-67.91-106.729c-15.244-0.698-28.393-0.698-37.423-0.698c-15.919-18.711-17.99-29.789-17.99-51.968c0-4.166, 2.769-6.935, 8.285-6.935
			l 31.209,0 c-8.192-36.096-13.708-73.775-15.686-108.567c-19.735-13.777-74.496-83.363-100.119-83.363c-10.38,0-14.545,24.948-14.545,56.832
			c0,35.351, 0.698,63.767, 5.539,90.065c 10.403,17.315, 19.409,33.955, 28.393,54.761c0,22.877-38.097,60.998-66.513,60.998c-9.728,0-17.315-7.633-23.575-20.108
			c-4.841,2.769-11.776,4.841-20.783,6.935c-14.545,2.769-28.393,4.166-41.588,4.166c-57.507,0-107.404-36.026-139.264-74.147
			c-29.3-35.607-45.079-81.152-49.664-125.673c-23.11-27.648-52.62-53.108-96.582-53.108c-34.653,0-59.601,23.575-59.601,74.822l0,27.718 
			c 86.621,112.943, 192.652,188.486, 192.652,273.711c0,38.819-24.25,61.649-63.767,61.649c-142.755,0-227.281-210.641-227.281-380.393c0-99.095, 71.377-137.914, 147.619-137.914
			c 43.055,0, 85.62,25.693, 114.269,58.927c 15.942-38.935, 52.387-62.371, 99.863-62.371c 63.791,0, 99.793,28.393, 124.044,67.887c 7.633-38.121, 22.877-64.442, 49.199-64.442
			c 53.807,0, 115.060,43.171, 143.407,90.042c 6.586-52.666, 25.786-90.042, 61.766-90.042c 75.567,0, 173.94,79.011, 173.94,139.264
			C 1326.545,122.81, 1323.776,131.119, 1316.841,131.119z M 616.82,418.001c 8.308,0, 11.776-4.841, 11.776-15.244c0-42.961-46.429-70.004-108.777-165.609
			C 539.881,352.186, 587.008,418.001, 616.82,418.001z M 892.672,120.739c-16.64-58.903-54.063-82.455-85.946-82.455c-31.185,0-39.494,26.345-39.494,53.364
			c0,93.556, 72.076,149.667, 139.287,162.141C 896.14,209.431, 893.347,149.178, 892.672,120.739z" horiz-adv-x="1326.545"  />
<glyph unicode="&#xe022;" d="M0,288.224L0,342.080 c0,22.976, 19.104,41.568, 42.656,41.568l 53.696,0 L 96.352,428.864 
	c0,10.528, 10.784,51.104, 24.096,51.104L 168.64,479.968 c 13.312,0, 24.096-40.576, 24.096-51.104l0-45.216 l 159.616,0 L 352.352,428.864 c0,10.528, 10.816,51.104, 24.096,51.104l 48.192,0 
	c 13.312,0, 24.096-40.576, 24.096-51.104l0-45.216 l 20.64,0 c 23.584,0, 42.688-18.592, 42.688-41.568l0-53.888 L0,288.192 z M 512.032,255.68l0-246.112 
	c0-22.976-19.104-41.6-42.688-41.6L 42.656-32.032 c-23.552,0-42.656,18.624-42.656,41.6L0,255.68 L 512.032,255.68 z"  />
<glyph unicode="&#xe036;" d="M 512,224l-190.4-64l-5.152-192L 193.6,120.48L0,65.792L 114.496,224L0,382.208l 193.6-54.656L 316.448,480l 5.152-192L 512,224z"  />
<glyph unicode="&#xe037;" d="M 384,63.776c 17.696,0, 32,14.336, 32,32.032s-14.304,32.032-32,32.032
			s-32-14.336-32-32.032S 366.304,63.776, 384,63.776z M 469.376,384L 42.688,384 c-23.584,0-42.688-19.104-42.688-42.688l0-330.592 
			c0-23.584, 19.104-42.72, 42.688-42.72l 426.688,0 c 23.552,0, 42.656,19.136, 42.656,42.72L 512.032,341.312 C 512.032,364.896, 492.928,384, 469.376,384z
			 M 448.032,32.096L 64,32.096 l0,127.776 l 384.032,0 L 448.032,32.096 z M 448.032,255.936L 64,255.936 l0,64.032 l 384.032,0 L 448.032,255.936 z"  />
<glyph unicode="&#xe038;" d="M 469.856,437.856c-56.224,56.224-147.392,56.224-203.648-0.032l-224-224c-56.256-56.256-56.256-147.424-0.032-203.648
	s 147.392-56.256, 203.648,0l 47.424,46.080c-25.504,0.576-48.768,8.864-68.48,22.336l-24.224-23.2c-31.264-31.264-81.92-31.264-113.152,0
	c-31.232,31.232-31.232,81.92, 0.032,113.152l 224,224c 31.264,31.264, 81.92,31.264, 113.12,0c 31.264-31.264, 31.296-81.888, 0.032-113.12L 312.96,167.040
	c-9.376-9.376-24.576-9.376-33.952,0s-9.376,24.576,0,33.952l 84.288,85.088c 6.24,6.24, 6.272,16.384,0,22.624l-22.624,22.624
	c-6.24,6.24-16.384,6.24-22.624,0l-84.288-85.088c-34.368-34.368-34.368-90.080,0-124.448c 34.368-34.368, 90.080-34.368, 124.448,0l 111.616,112.416
	C 526.048,290.432, 526.048,381.632, 469.856,437.856z"  />
<glyph unicode="&#xe039;" d="M 469.824,437.824C 442.592,465.024, 406.432,480, 368,480c-38.464,0-74.624-14.976-101.824-42.176
			c0,0-90.848-90.816-96.064-95.968c-27.104-27.168-42.048-63.36-42.112-102.048c 0.064-38.4, 15.040-74.496, 42.176-101.632l 11.68-11.712
			c 3.136-3.136, 7.264-4.672, 11.328-4.672c 4.096,0, 8.192,1.568, 11.328,4.672l 22.624,22.624c 6.24,6.24, 6.24,16.384,0,22.624l-11.712,11.712
			c-30.688,30.688-31.104,81.024-0.896,112.256c 0.928,0.928, 96.928,96.896, 96.928,96.896C 326.56,407.68, 346.624,416, 368,416
			s 41.44-8.32, 56.576-23.392l0-0.032 c 31.264-31.296, 31.264-81.888,0-113.12l-4.928-4.928C 427.36,253.728, 431.968,231.424, 432,208
			c0-4.256-0.608-8.352-0.832-12.512l 38.656,38.688C 526.048,290.432, 526.016,381.632, 469.824,437.824z M 330.080,321.568
			c-3.104,3.136-7.232,4.672-11.296,4.672c-4.128,0-8.224-1.568-11.328-4.672l-22.624-22.624c-6.272-6.24-6.272-16.384,0-22.624
			l 11.68-11.712c 30.688-30.688, 31.136-81.024, 0.928-112.256c-0.928-0.928-96.928-96.896-96.928-96.896C 185.44,40.32, 165.376,32, 143.968,32
			c-21.344,0-41.408,8.32-56.544,23.392l0,0.032 c-31.264,31.296-31.264,81.888-0.032,113.12l 4.96,4.928C 84.608,194.272, 80,216.576, 80,240
			c0,4.256, 0.576,8.352, 0.832,12.512l-38.656-38.688c-56.256-56.256-56.224-147.424,0-203.616C 69.408-17.024, 105.568-32, 144-32
			s 74.592,14.976, 101.824,42.176c0,0, 90.848,90.816, 96.064,95.968c 27.104,27.168, 42.048,63.36, 42.112,102.048c-0.064,38.4-15.072,74.496-42.176,101.632
			L 330.080,321.568z"  />
<glyph unicode="&#xe03b;" d="M 128,480l-96,0 c-17.664,0-32-14.304-32-32l0-448 c0-17.696, 14.336-32, 32-32l 96,0 
			c 17.664,0, 32,14.304, 32,32l0,448 C 160,465.696, 145.664,480, 128,480z M 448,480l-96,0 c-17.696,0-32-14.304-32-32l0-448 c0-17.696, 14.304-32, 32-32l 96,0 
			c 17.696,0, 32,14.304, 32,32l0,448 C 480,465.696, 465.696,480, 448,480z"  />
<glyph unicode="&#xe03c;" d="M 440,237.888l-416,240c-4.928,2.848-11.072,2.848-16,0C 3.072,475.008, 0,469.728, 0,464l0-480 
	c0-5.728, 3.072-11.008, 8-13.856C 10.464-31.296, 13.248-32, 16-32s 5.536,0.704, 8,2.144l 416,240c 4.928,2.848, 8,8.128, 8,13.856
	S 444.928,235.008, 440,237.888z"  />
<glyph unicode="&#xe03d;" d="M 506.368,194.080l-120.608,176c-5.984,8.704-15.84,13.92-26.4,13.92
			L 32,384 c-17.696,0-32-14.336-32-32l0-352 c0-17.664, 14.304-32, 32-32l 327.36,0 c 10.56,0, 20.448,5.184, 26.4,13.92l 120.608,176
			C 513.888,168.8, 513.888,183.2, 506.368,194.080z M 368,128c-26.496,0-48,21.504-48,48s 21.504,48, 48,48s 48-21.504, 48-48
			S 394.496,128, 368,128z"  />
<glyph unicode="&#xe03e;" d="M 373.376,480L 43.104,480 c-23.776,0-43.104-19.072-43.104-32l0-426.688 
			c0-34.208, 19.328-53.312, 43.104-53.312l 330.272,0 c 23.52,0, 42.624,19.104, 42.624,42.656L 416,437.344 C 416,460.928, 396.896,480, 373.376,480z M 224,64
			l-128,0 c-17.696,0-32,14.304-32,32s 14.304,32, 32,32l 128,0 c 17.696,0, 32-14.304, 32-32S 241.696,64, 224,64z M 320,192l-224,0 c-17.696,0-32,14.304-32,32
			s 14.304,32, 32,32l 224,0 c 17.696,0, 32-14.304, 32-32S 337.696,192, 320,192z M 320,320l-224,0 c-17.696,0-32,14.304-32,32s 14.304,32, 32,32l 224,0 
			c 17.696,0, 32-14.304, 32-32S 337.696,320, 320,320z"  />
<glyph unicode="&#xe03a;" d="M 469.376-32L 42.688-32 c-23.584,0-42.688,18.624-42.688,41.632L0,342.368 C0,365.376 19.104,384 42.688,384L 469.376,384 
	c 23.552,0, 42.656-18.624, 42.656-41.632l0-332.736 C 512.032-13.376, 492.928-32, 469.376-32z M 448.032,320L 64,320 l0-255.904 c0,0, 32,32.032, 64,64.032
	c 32,32.032, 64,0, 64,0l 32-32c0,0, 59.36,60.384, 96,96.064c 33.44,33.472, 64,0, 64,0l 64-64.064L 448.032,320z M 160,192c-17.664,0-32,14.336-32,31.968
	c0,17.696, 14.336,32.032, 32,32.032s 32-14.336, 32-32.032C 192,206.336 177.664,192 160,192z"  />
<glyph unicode="&#xe03f;" d="M 482.752,480L 29.248,480 C 13.184,480, 0,466.816, 0,450.752l0-453.504 C 0-18.816, 13.184-32, 29.248-32l 453.504,0 
	C 498.816-32, 512-18.816, 512-2.752L 512,450.752 C 512,466.816, 498.816,480, 482.752,480z M 434.56,192.792l-70.312,0 l0-188.248 l-71.68,0 L 292.568,192.792 L 242.776,192.792 L 242.776,260.568 l 49.752,0 
	c0,0,0,27.776,0,57.896c0,45.504, 29.44,87.296, 97.192,87.296c 27.352,0, 47.68-2.664, 47.68-2.664l-1.624-63.272c0,0-20.672,0.192-43.264,0.192
	c-24.448,0-28.328-11.264-28.328-29.952c0-2.304,0-3.136,0-3.2c0-5.248,0-17.96,0-46.312l 73.512,0 L 434.56,192.792z"  />
<glyph unicode="&#xe040;" d="M 83.488,415.264L 83.488,416 C 83.36,415.648, 83.2,415.424, 83.072,415.264L 83.488,415.264 zM 508.64,288.832c0,41.184-33.12,74.624-73.984,74.624C 376.384,365.952, 316.8,367.040, 256,366.944
	C 195.2,367.008, 135.616,365.952, 77.344,363.456c-40.8,0-73.952-33.44-73.952-74.624C 0.96,256.16-0.096,223.584,0,190.944
	c-0.096-32.608, 0.96-65.248, 3.392-97.92c0-41.184, 33.12-74.624, 73.952-74.624C 135.552,15.968, 195.2,14.848, 256,14.976
	c 60.736-0.128, 120.352,0.992, 178.624,3.424c 40.8,0, 73.952,33.44, 73.952,74.624c 2.496,32.672, 3.52,65.312, 3.424,97.92
	C 512.096,223.584, 511.072,256.192, 508.64,288.832z M 192.032,78.976l0,224 l 160-112L 192.032,78.976z"  />
<glyph unicode="&#xe041;" d="M 437.184,415.904C 366.016,418.24, 317.888,377.984, 292.64,294.976c 12.96,5.408, 25.632,8.16, 37.92,8.16
	c 25.984,0, 37.44-14.72, 34.336-44.224c-1.504-17.856-12.96-43.84-34.336-77.984C 309.056,146.784, 292.992,129.728, 282.368,129.728
	c-13.824,0-26.432,26.336-37.952,79.104C 240.576,224.352, 233.664,263.904, 223.776,327.552c-9.248,58.944-33.728,86.432-73.472,82.56
	C 133.504,408.576, 108.288,393.056, 74.688,363.616C 50.112,341.088, 25.28,318.592,0,296.096l 24.064-31.392c 23.008,16.384, 36.448,24.448, 40.16,24.448
	c 17.664,0, 34.080-27.872, 49.376-83.68c 13.792-51.264, 27.584-102.4, 41.376-153.632c 20.608-55.776, 45.92-83.712, 75.68-83.712
	c 48.16,0, 107.168,45.728, 176.704,137.216c 67.296,87.616, 102.016,156.672, 104.384,207.136C 514.848,379.872, 489.984,414.4, 437.184,415.904z"  />
<glyph unicode="&#xe042;" d="M 83.488,479.264L 83.488,480 C 83.36,479.648, 83.2,479.424, 83.072,479.264L 83.488,479.264 zM 512,413.696c-18.848-8.384-39.136-14.016-60.384-16.608c 21.728,12.992, 38.368,33.664, 46.24,58.112
	c-20.352-12.032-42.816-20.736-66.688-25.504c-19.232,20.448-46.496,33.184-76.704,33.184c-57.984,0-105.024-47.072-105.024-105.056
	c0-8.192, 0.928-16.256, 2.72-23.936c-87.296,4.448-164.704,46.208-216.512,109.76C 26.592,428.224, 21.408,410.144, 21.408,390.944
	c0-36.48, 18.56-68.608, 46.72-87.456C 50.912,304.032, 34.72,308.768, 20.544,316.64c0-0.448,0-0.832,0-1.344c0-50.912, 36.224-93.344, 84.256-103.008
	C 96,209.888, 86.72,208.608, 77.152,208.608c-6.752,0-13.344,0.64-19.776,1.888c 13.344-41.76, 52.16-72.128, 98.112-72.928
	c-35.936-28.192-81.248-44.992-130.432-44.992c-8.48,0-16.832,0.512-25.056,1.504c 46.496-29.824, 101.696-47.232, 161.024-47.232
	c 193.216,0, 298.88,160.064, 298.88,298.912c0,4.576-0.096,9.088-0.288,13.632C 480.128,374.144, 497.952,392.64, 512,413.696z"  />
<glyph unicode="&#xe043;" d="M 256,480C 114.592,480,0,365.376,0,224s 114.592-256, 256-256s 256,114.624, 256,256S 397.408,480, 256,480z M 253.216,286.016c-8.576,0-15.488-7.008-15.488-15.52
	L 237.664,177.088c-0.512-35.744-29.568-64.576-65.408-64.576c-36.16,0-65.472,29.312-65.472,65.504c0,0.48,0,40.64,0,40.64l 50.048,0 L 156.832,178.56 
	c0-8.608, 6.976-15.456, 15.488-15.456c 8.576,0, 15.488,6.944, 15.488,15.456L 187.808,273.152 c 1.28,35.072, 30.016,63.136, 65.344,63.136
	c 35.456,0, 64.32-28.288, 65.376-63.488l0-20.672 L 288.704,243.232L 268.672,252.544L 268.672,270.528 C 268.704,279.040, 261.792,286.016, 253.216,286.016z M 399.712,178.016
	c0-36.192-29.312-65.504-65.504-65.504c-36,0-65.184,28.992-65.504,64.864L 268.704,218.208 l 20-9.312l 29.888,8.864l0-41.12 
	c0-8.608, 6.944-15.488, 15.488-15.488c 8.544,0, 15.456,6.944, 15.456,15.488L 349.536,218.624 l 50.080,0 C 399.712,218.624, 399.712,178.464, 399.712,178.016z"  />
<glyph unicode="&#xe044;" d="M 90.368,28.96c 39.424,56.8, 104.864,94.112, 179.264,94.112c 67.712,0, 128.064-30.976, 168.128-79.328
	C 483.616,90.016, 512,153.696, 512,224c0,141.376-114.624,256-256,256S0,365.376,0,224C0,145.856, 35.136,75.936, 90.368,28.96z M 392.8,147.232
	c-3.68-8.32-10.368-9.984-18.176-6.368c-34.048,15.744-72,24.608-112,24.608c-41.12,0-80-9.28-114.752-25.856
	c-3.744-1.824-11.936-2.56-15.616,8.064c-3.68,10.56, 2.112,16.64, 5.504,18.112c 37.984,17.76, 80.192,27.84, 124.864,27.84
	c 43.872,0, 86.048-8.352, 122.816-26.912C 391.264,163.776, 396.576,155.456, 392.8,147.232z M 414.624,212.608c-2.688-3.68-6.816-6.24-11.68-6.24
	c-1.376,0-2.56,0.416-3.808,0.736c-41.824,18.432-87.936,28.832-136.512,28.832c-48.256,0-94.048-10.208-135.616-28.416
	C 125.504,206.976, 123.936,206.528, 122.24,206.528c-4.928,0-9.152,2.688-11.776,6.496l-2.752,8.32C 107.776,225.664, 109.76,229.408, 112.736,232.032
	c 45.792,20.576, 96.448,32.128, 149.888,32.128c 53.408,0, 104.032-11.552, 149.824-32.128c 3.072-2.56, 4.96-6.432, 5.088-10.752L 414.624,212.608z
	 M 94.112,315.968C 146.24,336.96, 202.976,348.704, 262.624,348.704c 59.008,0, 115.328-11.488, 167.008-32.128c 7.008-3.552, 11.872-10.624, 11.872-19.040
	c0-11.872-9.632-21.504-21.504-21.504c-1.696,0-3.264,0.416-4.8,0.704c-47.136,19.040-98.624,29.6-152.576,29.6
	c-54.016,0-105.568-10.56-152.736-29.664C 108.384,276.416, 106.88,276.064, 105.248,276.064c-11.872,0-21.504,9.632-21.504,21.504
	C 83.744,305.44, 87.936,312.224, 94.112,315.968z M 269.632,38.496c-43.328,0-81.728-20.896-106.24-52.96C 192.128-25.632, 223.328-32, 256.032-32
	c 40.544,0, 78.688,9.664, 112.704,26.4C 344.256,21.44, 308.928,38.496, 269.632,38.496z"  />
<glyph unicode="&#xe045;" d="M 83.456,464.288L 83.456,465.024 c-0.128-0.352-0.32-0.576-0.448-0.736L 83.456,464.288 zM 490.592,186.944C 492.48,199.008, 493.536,211.36, 493.536,224c0,131.2-106.368,237.568-237.568,237.568
	c-12.576,0-24.992-1.056-37.056-2.944C 197.024,472.192, 171.232,480, 143.52,480C 64.256,480,0,415.744,0,336.448c0-27.68, 7.84-53.472, 21.376-75.36
	C 19.488,248.992, 18.464,236.64, 18.464,224c0-131.2, 106.304-237.472, 237.536-237.472c 12.608,0, 24.992,0.96, 37.088,2.88c 21.952-13.504, 47.68-21.376, 75.36-21.376
	c 79.264,0, 143.52,64.288, 143.52,143.52C 511.968,139.264, 504.16,165.024, 490.592,186.944z M 368.704,116c-10.016-14.496-24.768-25.824-44.064-33.952
	c-19.328-8.128-42.176-12.192-68.608-12.192c-31.584,0-57.792,5.504-78.464,16.672c-14.656,8-26.56,18.752-35.68,32.128
	c-9.184,13.408-13.856,26.496-13.856,39.328c0,7.488, 2.88,14.048, 8.48,19.392C 142.208,182.784, 149.504,185.504, 158.080,185.504
	c 7.040,0, 13.056-2.112, 18.016-6.304C 180.992,174.976, 185.12,168.864, 188.48,160.8c 4-9.312, 8.384-17.088, 13.024-23.36
	c 4.672-6.112, 11.104-11.328, 19.52-15.328c 8.32-4.064, 19.424-6.048, 33.248-6.048c 19.008,0, 34.368,4.16, 46.048,12.224
	c 11.808,8.224, 17.504,18.112, 17.504,30.144c0,9.6-3.072,17.184-9.312,23.136c-6.368,6.016-14.496,10.56-24.672,13.76
	c-10.144,3.264-23.84,6.688-40.96,10.272C 219.936,210.56, 200.704,216.448, 185.152,223.136C 169.568,229.888, 157.152,239.072, 147.936,250.72
	C 138.688,262.4, 134.080,276.992, 134.080,294.304c0,16.448, 4.832,31.2, 14.56,44.032C 158.4,351.2, 172.48,361.024, 190.752,367.904
	c 18.24,6.848, 39.744,10.208, 64.352,10.208c 19.68,0, 36.704-2.208, 51.136-6.816c 14.368-4.576, 26.368-10.56, 35.936-18.080
	c 9.6-7.552, 16.576-15.456, 20.992-23.872c 4.448-8.384, 6.688-16.608, 6.688-24.544c0-7.392-2.912-14.144-8.512-20.064
	c-5.632-5.952-12.736-8.896-21.152-8.864c-7.52,0-13.472,1.728-17.6,5.408C 318.592,284.8, 314.4,290.528, 309.856,298.464
	C 304.128,309.472, 297.248,318.048, 289.248,324.256C 281.472,330.24, 268.608,333.44, 250.72,333.408c-16.576,0-29.824-3.328-39.776-9.984
	C 200.896,316.672, 196.096,308.928, 196.064,299.776c 0.032-5.728, 1.664-10.56, 4.992-14.688C 204.416,280.864, 209.088,277.312, 215.104,274.24
	C 221.12,271.2, 227.232,268.736, 233.376,267.072c 6.208-1.76, 16.544-4.32, 30.88-7.68C 282.208,255.488, 298.56,251.2, 313.216,246.432s 27.136-10.464, 37.44-17.28
	c 10.4-6.816, 18.528-15.456, 24.384-25.92c 5.824-10.496, 8.704-23.328, 8.704-38.368C 383.872,146.752, 378.816,130.432, 368.704,116z"  />
<glyph unicode="&#xe046;" d="M 83.488,464.32L 83.488,465.056 C 83.36,464.704, 83.2,464.48, 83.072,464.32L 83.488,464.32 zM 256,480C 114.624,480,0,365.376,0,224c0-104.768, 63.072-194.848, 153.248-234.464c-0.672,17.888-0.16,39.36, 4.448,58.816
	C 162.624,69.088, 190.624,187.84, 190.624,187.84S 182.464,204.16, 182.464,228.32c0,37.984, 21.984,66.272, 49.344,66.272c 23.328,0, 34.56-17.504, 34.56-38.432
	c0-23.36-14.944-58.368-22.624-90.816c-6.4-27.2, 13.632-49.312, 40.384-49.312c 48.512,0, 81.184,62.304, 81.184,136.064
	c0,56.096-37.824,98.112-106.528,98.112c-77.664,0-126.016-57.952-126.016-122.624c0-22.272, 6.56-38.016, 16.896-50.208
	c 4.704-5.568, 5.408-7.808, 3.68-14.208c-1.248-4.736-4.032-16.064-5.216-20.576c-1.728-6.496-6.976-8.8-12.8-6.368
	C 99.552,150.784, 82.88,189.984, 82.88,233.984c0,72.704, 61.312,159.936, 183.008,159.936c 97.696,0, 162.048-70.752, 162.048-146.624
	c0-100.448-55.872-175.392-138.112-175.392c-27.68,0-53.696,14.944-62.56,31.872c0,0-14.88-59.040-17.984-70.368
	c-5.44-19.744-16.064-39.392-25.76-54.816C 206.464-28.256, 230.816-31.936, 256-31.936c 141.376,0, 256,114.624, 256,255.968S 397.376,480, 256,480z"  />
<glyph unicode="&#xe047;" d="M 127.104,457.44C 61.216,431.392, 16.48,381.088, 3.968,313.376c-7.68-41.6-4.736-86.976, 13.6-125.792
	C 21.664,178.944, 26.56,170.656, 32.416,162.944c 2.88-3.712, 5.888-7.328, 9.152-10.72c 5.856,2.048, 11.456,4.672, 16.832,7.744
	C 80.704,172.544, 97.088,191.872, 116.16,208.16C 52.48,281.984, 120,373.472, 204.544,393.92c 78.624,19.008, 185.248-13.792, 209.056-94.688
	c 9.888-33.536, 3.36-70.56-23.904-94.88c-14.272-12.672-32.448-21.056-51.584-24.512c-11.264-1.984-22.752-2.336-34.016-1.184
	c-6.272,0.64-12.608,1.664-18.752,3.136c-10.464,2.496-19.776,2.144-19.776,13.44c0,29.504,0,59.008,0,88.512c0,14.752,0,29.504,0,44.256
	c0,8.992, 0.896,7.328-6.592,8.256C 252.96,336.96, 247.104,337.536, 241.152,338.016c-20.864,1.664-42.688,2.752-63.36-0.768
	C 170.016,335.872, 169.504,337.088, 169.504,328.704c0-6.816,0-13.632,0-20.384c0-16.576,0-33.056,0-49.632c0-49.44, 3.744-99.424, 1.728-148.736
	c-0.608-14.688-0.992-49.984-17.44-57.248c-19.104-8.448-35.936,9.376-53.568,13.12c 2.4-24.768-13.056-73.888, 15.776-86.368
	c 26.464-11.424, 56.896-15.648, 84.832-6.24c 58.432,19.84, 77.376,84.864, 69.984,138.368c 90.272-27.008, 187.68,18.112, 226.304,99.616
	c 27.456,58.048, 15.84,130.112-25.536,179.488C 394.080,483.136, 236.768,500.896, 127.104,457.44z"  />
<glyph unicode="&#xe048;" d="M 424.288,205.12c 44.096,0, 79.84,35.584, 79.84,79.52s-35.744,79.552-79.84,79.552c-44.128,0-79.84-35.616-79.84-79.552
	S 380.16,205.12, 424.288,205.12M 431.36,186.624c-0.64,0.064-1.248,0.128-1.824,0.192C 429.088,186.88, 428.64,186.88, 428.16,186.88
	c-1.28,0.064-2.528,0.128-3.808,0.128L 424.32,187.008 l-0.096,0 c-1.312,0-2.592-0.064-3.84-0.128c-0.512,0-0.928,0-1.408-0.064
	c-0.608-0.064-1.152-0.128-1.792-0.192c-45.12-3.872-80.672-44.128-80.672-90.048l0-30.88 c0-4.384, 3.552-7.936, 8-7.936l 2.816,0 l 153.952,0 
	l 2.848,0 c 4.416,0, 7.968,3.552, 7.968,7.936l0,30.88 C 512.032,142.496, 476.512,182.752, 431.36,186.624M 239.328,190.368c 39.616,0, 71.872,32.064, 71.872,71.616S 278.944,333.568, 239.328,333.568c-39.744,0-71.872-32-71.872-71.552
	S 199.552,190.368, 239.328,190.368M 245.632,173.76C 245.12,173.824, 244.576,173.888, 244.064,173.952c-0.448,0-0.864,0-1.312,0.064
	c-1.12,0-2.24,0.064-3.36,0.064L 239.264,174.080 L 239.2,174.080 c-1.12,0-2.24-0.064-3.392-0.064C 235.36,173.952, 234.976,173.952, 234.528,173.952
	C 233.984,173.888, 233.472,173.824, 232.928,173.76c-40.672-3.488-72.672-39.68-72.672-81.056l0-27.744 l0-0.064 c0-3.936, 3.232-7.136, 7.232-7.136l 2.496,0 l 138.496,0 
	l 2.56,0 c 3.968,0, 7.2,3.2, 7.2,7.136l0,0.064 l0,27.744 C 318.24,134.048, 286.24,170.24, 245.632,173.76M 71.136,177.12c 35.712,0, 64.672,28.768, 64.672,64.448c0,35.552-28.96,64.448-64.672,64.448
	c-35.744,0-64.672-28.864-64.672-64.448C 6.432,205.952, 35.36,177.12, 71.136,177.12M 76.8,162.176c-0.48,0-0.928,0.064-1.44,0.064C 75.008,162.304, 74.656,162.304, 74.24,162.304
	C 73.248,162.432, 72.224,162.432, 71.2,162.432L 71.136,162.432 L 71.040,162.432 c-1.024,0-2.016,0-3.136-0.128c-0.416,0-0.704,0-1.12-0.064
	c-0.48,0-0.896-0.064-1.44-0.064C 28.736,159.008,0,126.368,0,89.184l0-24.96 c0-3.552, 2.912-6.432, 6.464-6.432l 2.272,0 l 124.672,0 L 135.68,57.792 
	c 3.552,0, 6.432,2.88, 6.432,6.432l0,24.96 C 142.176,126.368, 113.44,159.008, 76.8,162.176"  />
<glyph unicode="&#xe049;" d="M 83.456,464.32L 83.456,465.056 C 83.328,464.704, 83.168,464.48, 83.040,464.32L 83.456,464.32 zM 479.968,480l-16.736,0 L 48.736,480 L 32,480 C 14.336,480,0,465.664,0,448l0-16.768 l0-414.528 l0-16.768 C0-17.728, 14.336-32, 32-32l 16.768,0 l 414.464,0 l 16.736,0 
	c 17.696,0, 32,14.272, 32,31.936l0,16.768 L 511.968,431.264 L 511.968,448.032 C 511.968,465.664, 497.664,480, 479.968,480z M 438.656,65.024l-72.128,0 L 366.528,180.032 
	c0,28.928-8.256,48.64-34.304,48.64c-19.968,0-31.872-13.312-37.056-26.080c-1.92-4.608-2.368-11.104-2.368-17.504l0-120 L 218.336,65.088 
	c0,0, 0.928,200.896,0,221.088l 74.432,0 L 292.768,255.68 c 9.6,14.656, 26.688,35.52, 65.056,35.52c 47.424,0, 80.8-36.928, 80.8-102.912L 438.624,65.024 z M 130.336,382.464
	c 22.176,0, 35.808-16.032, 36.256-36.992c0-20.576-14.048-36.992-36.672-36.992L 129.536,308.48 c-21.792,0-35.808,16.448-35.808,36.992
	C 93.728,366.432, 108.16,382.464, 130.336,382.464z M 170.688,285.312l0-220.256 L 97.536,65.056 L 97.536,285.312 L 170.688,285.312 z"  />
<glyph unicode="&#xe04a;" d="M0,69.152c 18.848,8.736, 38.4,14.88, 58.624,18.4c 27.232,4.064, 49.856,6.304, 67.84,6.816c-5.536,7.392-10.528,15.296-14.848,23.68
		c-5.088,8.16-7.616,17.984-7.616,29.44c0,6.88, 0.96,12.608, 2.88,17.184c 1.696,4.8, 3.264,9.28, 4.704,13.376
		C 102.816,176.992, 94.56,176.512, 86.784,176.512C 50.016,176.96, 21.12,187.456,0,208.032L0,69.152 zM 187.488,276.512c0,30.688-7.776,61.664-23.328,92.896c-7.296,14.976-16.896,27.168-28.8,36.544c-12.16,8.896-26.112,13.6-41.92,14.080
		C 72.512,419.52, 55.136,411.008, 41.28,394.528C 29.6,377.28, 24,357.984, 24.512,336.672c0-28.16, 8.16-57.504, 24.48-87.968
		c 7.904-14.208, 18.112-26.272, 30.624-36.16c 12.48-9.888, 26.784-14.848, 42.848-14.848c 20.32,0.736, 37.248,8.128, 50.752,22.080
		C 179.744,229.696, 183.936,239.84, 185.824,250.24C 186.912,260.672, 187.488,269.408, 187.488,276.512zM 147.488,72.384c-4.928,0.544-10.688,0.768-17.312,0.768c-3.936,0.512-14.016,0-30.208-1.536c-15.968-2.24-32.32-5.952-48.992-11.008
		c-3.936-1.536-9.44-3.808-16.576-6.88c-7.136-3.264-14.368-7.936-21.728-14.016C 7.968,35.552, 3.744,30.688,0,25.152l0-21.152 
		C0-15.872, 16-32, 35.648-32l 194.304,0 c0,0.48, 0.032,0.928, 0.032,1.44c0,19.744-6.4,36.96-19.168,51.648
		C 197.344,35.040, 176.224,52.128, 147.488,72.384zM 476.352,480l-92.096,0 L 256.032,480 l-130.24,0 L 35.648,480 C 16,480,0,463.872,0,444l0-38.976 l0-9.312 c 2.24,2.4, 4.576,4.8, 7.008,7.168
		c 21.952,18.24, 44.704,30.144, 68.352,35.712c 23.392,4.8, 45.344,7.232, 65.792,7.232l 154.24,0 L 247.776,417.76L 200.192,417.76 
		C 205.056,414.72, 210.496,410.272, 216.544,404.448c 5.824-6.080, 11.52-13.536, 17.088-22.4c 5.344-8.384, 10.048-18.24, 14.176-29.632
		C 251.2,341.024, 252.864,327.712, 252.864,312.544c-0.448-27.872-6.56-50.144-18.272-66.88c-5.76-8.096-11.84-15.552-18.272-22.4
		C 209.216,216.416, 201.632,209.44, 193.6,202.368c-4.608-4.8-8.832-10.272-12.736-16.384C 176.256,179.68, 173.952,172.352, 173.952,164
		c0-8.128, 2.368-14.816, 7.072-20.128c 4-5.12, 7.904-9.504, 11.68-13.312l 26.144-21.696c 16.256-13.408, 30.528-28.192, 42.784-44.448
		c 11.552-16.448, 17.568-38.016, 18.016-64.576c0-11.008-1.408-21.632-4.224-31.872l 200.896,0 C 496-32, 512-15.872, 512,4L 512,405.024 L 512,444 
		C 512,463.872, 496,480, 476.352,480z M 504.384,321.184l-80.928,0 l0-81.728 l-39.2,0 L 384.256,321.184 L 303.328,321.184 L 303.328,360.768 l 80.928,0 L 384.256,442.496 l 39.2,0 l0-81.728 l 80.928,0 L 504.384,321.184 z"  />
<glyph unicode="&#xe04c;" d="M 256,480C 114.624,480,0,365.376,0,224s 114.592-256, 256-256c 141.376,0, 256,114.624, 256,256S 397.376,480, 256,480z M 412.864,347.264
		c 24.992-31.68, 40.64-70.976, 42.56-113.888c-28.864,6.112-56.192,9.12-81.632,9.12l0,0l-0.224,0 c-20.512,0-39.712-1.888-57.856-5.056
		C 311.328,248.256, 306.88,258.624, 302.368,268.576C 342.752,286.24, 381.504,311.424, 412.864,347.264z M 256,423.712c 47.136,0, 90.304-16.48, 124.576-43.904
		C 354.4,348.512, 319.808,325.824, 282.464,309.76C 256.256,360.512, 230.88,396.736, 213.568,418.944C 227.328,422.016, 241.44,423.712, 256,423.712z M 167.808,402.912
		C 181.664,386.56, 209.44,350.528, 239.072,294.24C 178.784,276.288, 118.048,272.128, 81.344,272.128c-1.024,0-2.080,0-3.104,0L 78.176,272.128 
		c-6.176,0-11.488,0.128-15.968,0.256C 76.576,329.76, 115.872,377.184, 167.808,402.912z M 56.288,224c0,0.928, 0.032,1.888, 0.096,2.88
		C 62.080,226.656, 69.376,226.464, 78.176,226.464l 0.064,0 C 118.4,226.752, 188.512,230.112, 259.488,252.512C 263.36,244.064, 267.264,235.264, 271.008,226.048
		C 223.552,210.24, 186.24,184.928, 158.592,159.744c-26.592-24.256-44.608-48.256-55.104-64.256C 74.112,130.304, 56.288,175.008, 56.288,224z M 256,24.256
		c-44.448,0-85.408,14.688-118.656,39.36c 7.104,11.616, 22.208,33.984, 46.336,57.056c 24.8,23.744, 59.040,48.256, 103.744,62.816
		c 15.232-42.624, 28.992-91.328, 39.456-146.144C 304.8,28.928, 280.992,24.256, 256,24.256z M 369.056,59.712c-10.112,49.6-22.944,94.272-36.864,134.208
		c 12.928,1.856, 26.56,2.88, 40.928,2.88l 0.512,0 l 0.064,0 l 0.064,0 c 23.808,0, 49.984-2.944, 78.336-9.376C 442.304,134.624, 411.68,89.12, 369.056,59.712z
		"  />
<glyph unicode="&#xe04d;" d="M 427.52,480L 84.48,480 C 38.016,480,0,441.984,0,395.52L0,52.48 c0-46.432, 38.016-84.512, 84.48-84.512L 427.52-32.032 c 46.432,0, 84.512,38.048, 84.512,84.512L 512.032,395.52 
		C 512,441.984, 473.984,480, 427.52,480z M 411.168,167.296c-0.32-54.432-44.544-98.976-99.040-98.976L 198.272,68.32 c-54.496,0-99.072,44.544-99.072,98.976L 99.2,282.848 
		c0,54.496, 44.576,99.2, 99.072,99.2l 69.312,0 c 25.568-3.072, 62.752-24.928, 76.512-54.080c 3.744-8.16, 5.76-9.44, 8.864-33.664
		c 1.696-12.448, 2.56-21.696, 8.096-26.816c 7.84-7.168, 36.96-2.304, 42.784-6.816l 4.384-3.424l 2.624-5.472l 0.928-4.416L 411.168,167.296zM 199.52,263.168l 54.944,0 c 10.496,0, 19.008,8.64, 19.008,19.008s-8.512,18.88-19.008,18.88L 199.52,301.056 c-10.432,0-18.944-8.512-18.944-18.88
		S 189.088,263.168, 199.52,263.168zM 311.232,187.52L 199.584,187.52 c-10.464,0-19.008-8.448-19.008-18.816c0-10.272, 8.544-18.88, 19.008-18.88l 111.616,0 c 10.336,0, 18.816,8.608, 18.816,18.88
		C 330.016,179.104, 321.568,187.52, 311.232,187.52z"  />
<glyph unicode="&#xe04e;" d="M 462.368,242.752l-128.352,0 l0,32 l 128.352,0 L 462.368,242.752 z M 248.704,111.488c 8.32-12.896, 12.384-28.544, 12.384-46.944
	c0-18.944-4.64-36-14.112-51.040C 240.896,3.552, 233.408-4.736, 224.416-11.584C 214.272-19.36, 202.272-24.736, 188.48-27.68
	C 174.656-30.56, 159.648-32, 143.52-32L0-32 L0,288 l 153.92,0 c 38.752-0.64, 66.208-11.904, 82.496-34.048C 246.080,240.32, 250.944,224, 250.944,205.056
	c0-19.552-4.896-35.264-14.752-47.136C 230.72,151.328, 222.624,145.216, 211.936,139.744C 228.16,133.76, 240.48,124.416, 248.704,111.488z M 73.472,161.888l 67.36,0 
	c 13.92,0, 25.056,2.688, 33.728,7.872c 8.672,5.312, 12.896,14.688, 12.896,28.192c0,14.944-5.696,24.768-17.088,29.568
	C 160.544,230.816, 148,232.512, 132.704,232.512L 73.44,232.512 L 73.472,161.888L 73.472,161.888z M 193.984,69.184c0,16.64-6.752,28.128-20.288,34.24
	C 166.144,106.976, 155.52,108.736, 141.92,108.928L 73.472,108.928 l0-85.312 l 67.328,0 c 13.856,0, 24.544,1.792, 32.288,5.632C 187.008,36.256, 193.984,49.472, 193.984,69.184z
	 M 509.984,121.248c 1.568-10.464, 2.24-25.696, 1.984-45.536l-166.112,0 c 0.896-23.040, 8.8-39.168, 23.84-48.352c 9.024-5.824, 20-8.672, 32.896-8.672
	c 13.504,0, 24.576,3.456, 33.056,10.528c 4.672,3.744, 8.672,9.056, 12.256,15.68l 60.864,0 c-1.568-13.568-8.896-27.36-22.048-41.376
	c-20.384-22.304-49.024-33.504-85.824-33.504c-30.368,0-57.12,9.44-80.384,28.256C 297.344,17.12, 285.728,47.712, 285.728,90.112
	c0,39.68, 10.4,70.112, 31.36,91.328c 20.992,21.248, 48.192,31.808, 81.664,31.808c 19.808,0, 37.728-3.552, 53.664-10.752
	c 15.904-7.136, 29.024-18.432, 39.392-33.952C 501.12,155.008, 507.168,139.264, 509.984,121.248z M 450.016,115.328c-1.12,15.936-6.432,28-16,36.192
	c-9.44,8.352-21.248,12.448-35.328,12.448c-15.36,0-27.2-4.448-35.616-13.12c-8.48-8.672-13.76-20.576-15.872-35.488L 450.016,115.36 L 450.016,115.328z"  />
<glyph unicode="&#xe04b;" d="M 176,416l-160,0 C 7.168,416,0,408.832,0,400l0-160 C0,231.168, 7.168,224, 16,224l 160,0 C 184.832,224, 192,231.168, 192,240l0,160 C 192,408.832, 184.832,416, 176,416
	zM 176,160l-160,0 C 7.168,160,0,152.832,0,144l0-160 C0-24.832, 7.168-32, 16-32l 160,0 C 184.832-32, 192-24.832, 192-16l0,160 
	C 192,152.832, 184.832,160, 176,160zM 496,416l-224,0 C 263.168,416, 256,408.832, 256,400l0-32 C 256,359.168, 263.168,352, 272,352l 224,0 C 504.864,352, 512,359.168, 512,368l0,32 
	C 512,408.832, 504.864,416, 496,416zM 496,288l-224,0 C 263.168,288, 256,280.832, 256,272l0-32 C 256,231.168, 263.168,224, 272,224l 224,0 C 504.864,224, 512,231.168, 512,240l0,32 
	C 512,280.832, 504.864,288, 496,288zM 496,160l-224,0 C 263.168,160, 256,152.832, 256,144l0-32 C 256,103.168, 263.168,96, 272,96l 224,0 c 8.864,0, 16,7.168, 16,16l0,32 
	C 512,152.832, 504.864,160, 496,160zM 496,32l-224,0 C 263.168,32, 256,24.832, 256,16l0-32 C 256-24.832, 263.168-32, 272-32l 224,0 c 8.864,0, 16,7.168, 16,16l0,32 
	C 512,24.832, 504.864,32, 496,32z"  />
<glyph unicode="&#xe04f;" d="M 112,416l-96,0 C 7.168,416,0,408.832,0,400l0-96 C0,295.168, 7.168,288, 16,288l 96,0 C 120.832,288, 128,295.168, 128,304l0,96 C 128,408.832, 120.832,416, 112,416z M 112,256l-96,0 
			C 7.168,256,0,248.832,0,240l0-96 C0,135.168, 7.168,128, 16,128l 96,0 C 120.832,128, 128,135.168, 128,144l0,96 C 128,248.832, 120.832,256, 112,256z M 272,416l-96,0 
			C 167.168,416, 160,408.832, 160,400l0-96 C 160,295.168, 167.168,288, 176,288l 96,0 C 280.832,288, 288,295.168, 288,304l0,96 C 288,408.832, 280.832,416, 272,416z M 272,256l-96,0 
			C 167.168,256, 160,248.832, 160,240l0-96 C 160,135.168, 167.168,128, 176,128l 96,0 C 280.832,128, 288,135.168, 288,144l0,96 C 288,248.832, 280.832,256, 272,256z M 432,416l-96,0 
			C 327.168,416, 320,408.832, 320,400l0-96 C 320,295.168, 327.168,288, 336,288l 96,0 C 440.832,288, 448,295.168, 448,304l0,96 C 448,408.832, 440.832,416, 432,416z M 432,256l-96,0 
			C 327.168,256, 320,248.832, 320,240l0-96 C 320,135.168, 327.168,128, 336,128l 96,0 C 440.832,128, 448,135.168, 448,144l0,96 C 448,248.832, 440.832,256, 432,256z M 112,96l-96,0 
			C 7.168,96,0,88.832,0,80l0-96 C0-24.832, 7.168-32, 16-32l 96,0 C 120.832-32, 128-24.832, 128-16l0,96 C 128,88.832, 120.832,96, 112,96z M 272,96l-96,0 
			C 167.168,96, 160,88.832, 160,80l0-96 C 160-24.832, 167.168-32, 176-32l 96,0 C 280.832-32, 288-24.832, 288-16l0,96 C 288,88.832, 280.832,96, 272,96z M 432,96l-96,0 
			c-8.832,0-16-7.168-16-16l0-96 c0-8.832, 7.168-16, 16-16l 96,0 c 8.832,0, 16,7.168, 16,16l0,96 C 448,88.832, 440.832,96, 432,96z"  />
<glyph unicode="&#xe050;" d="M 496,416l-384,0 C 103.168,416, 96,408.832, 96,400l0-32 C 96,359.168, 103.168,352, 112,352l 384,0 C 504.832,352, 512,359.168, 512,368l0,32 
	C 512,408.832, 504.832,416, 496,416zM 496,288l-384,0 C 103.168,288, 96,280.832, 96,272l0-32 C 96,231.168, 103.168,224, 112,224l 384,0 C 504.832,224, 512,231.168, 512,240l0,32 
	C 512,280.832, 504.832,288, 496,288zM 496,160l-384,0 C 103.168,160, 96,152.832, 96,144l0-32 C 96,103.168, 103.168,96, 112,96l 384,0 c 8.832,0, 16,7.168, 16,16l0,32 
	C 512,152.832, 504.832,160, 496,160zM 496,32l-384,0 C 103.168,32, 96,24.832, 96,16l0-32 C 96-24.832, 103.168-32, 112-32l 384,0 c 8.832,0, 16,7.168, 16,16l0,32 
	C 512,24.832, 504.832,32, 496,32zM 48,416l-32,0 C 7.168,416,0,408.832,0,400l0-32 C0,359.168, 7.168,352, 16,352l 32,0 C 56.832,352, 64,359.168, 64,368l0,32 C 64,408.832, 56.832,416, 48,416
	zM 48,288l-32,0 C 7.168,288,0,280.832,0,272l0-32 C0,231.168, 7.168,224, 16,224l 32,0 C 56.832,224, 64,231.168, 64,240l0,32 C 64,280.832, 56.832,288, 48,288
	zM 48,160l-32,0 C 7.168,160,0,152.832,0,144l0-32 C0,103.168, 7.168,96, 16,96l 32,0 C 56.832,96, 64,103.168, 64,112l0,32 
	C 64,152.832, 56.832,160, 48,160zM 48,32l-32,0 C 7.168,32,0,24.832,0,16l0-32 C0-24.832, 7.168-32, 16-32l 32,0 C 56.832-32, 64-24.832, 64-16l0,32 
	C 64,24.832, 56.832,32, 48,32z"  />
<glyph unicode="&#xe051;" d="M 208,480l-192,0 C 7.168,480,0,472.832,0,464l0-192 C0,263.168, 7.168,256, 16,256l 192,0 C 216.832,256, 224,263.168, 224,272l0,192 C 224,472.832, 216.832,480, 208,480z M 496,480l-192,0 
			C 295.168,480, 288,472.832, 288,464l0-192 C 288,263.168, 295.168,256, 304,256l 192,0 C 504.832,256, 512,263.168, 512,272l0,192 C 512,472.832, 504.832,480, 496,480z M 208,192l-192,0 
			C 7.168,192,0,184.832,0,176l0-192 C0-24.832, 7.168-32, 16-32l 192,0 C 216.832-32, 224-24.832, 224-16l0,192 C 224,184.832, 216.832,192, 208,192z M 496,192l-192,0 
			C 295.168,192, 288,184.832, 288,176l0-192 C 288-24.832, 295.168-32, 304-32l 192,0 c 8.832,0, 16,7.168, 16,16l0,192 C 512,184.832, 504.832,192, 496,192z"  />
<glyph unicode="&#xe052;" d="M 496,416l-480,0 C 7.168,416,0,408.832,0,400l0-32 C0,359.168, 7.168,352, 16,352l 480,0 C 504.832,352, 512,359.168, 512,368l0,32 
	C 512,408.832, 504.832,416, 496,416zM 496,288l-480,0 C 7.168,288,0,280.832,0,272l0-32 C0,231.168, 7.168,224, 16,224l 480,0 C 504.832,224, 512,231.168, 512,240l0,32 
	C 512,280.832, 504.832,288, 496,288zM 496,160l-480,0 C 7.168,160,0,152.832,0,144l0-32 C0,103.168, 7.168,96, 16,96l 480,0 c 8.832,0, 16,7.168, 16,16l0,32 
	C 512,152.832, 504.832,160, 496,160zM 496,32l-480,0 C 7.168,32,0,24.832,0,16l0-32 C0-24.832, 7.168-32, 16-32l 480,0 c 8.832,0, 16,7.168, 16,16l0,32 
	C 512,24.832, 504.832,32, 496,32z"  />
<glyph unicode="&#xe053;" d="M 496,384l-320,0 C 167.168,384, 160,376.832, 160,368l0-32 C 160,327.168, 167.168,320, 176,320l 320,0 C 504.832,320, 512,327.168, 512,336l0,32 
	C 512,376.832, 504.832,384, 496,384zM 496,224l-320,0 C 167.168,224, 160,216.832, 160,208l0-32 C 160,167.168, 167.168,160, 176,160l 320,0 C 504.832,160, 512,167.168, 512,176l0,32 
	C 512,216.832, 504.832,224, 496,224zM 496,64l-320,0 C 167.168,64, 160,56.832, 160,48l0-32 C 160,7.168, 167.168,0, 176,0l 320,0 c 8.832,0, 16,7.168, 16,16l0,32 
	C 512,56.832, 504.832,64, 496,64zM0,352A64,64 180 1 1 128,352A64,64 180 1 1 0,352zM0,192A64,64 180 1 1 128,192A64,64 180 1 1 0,192zM0,32A64,64 180 1 1 128,32A64,64 180 1 1 0,32z"  />
<glyph unicode="&#xe02c;" d="M 192.576-33.056l-64.096,64.128l 160.544,160.448L 128.448,350.496l 64,65.504l 223.584-223.616L 192.576-33.056z"  />
<glyph unicode="&#xe054;" d="M 31.712,303.136l 64.128,64.096l 160.448-160.544L 415.264,367.264l 65.504-64l -223.616-223.584L 31.712,303.136z"  />
<glyph unicode="&#xe055;" d="M 480.768,143.808l-64.128-64.096l -160.448,160.544L 97.216,79.68l -65.504,64l 223.616,223.584L 480.768,143.808z"  />
<glyph unicode="&#xe056;" d="M 516.715,103.765c-57.728,35.861-91.051,59.179-106.048,68.523
			c-14.997,9.365-25.173-2.005-25.173-2.005s-25.664-40.491-36.075-50.859c-4.715-4.715-9.173-10.368-14.741-10.944
			c-6.784-0.683-14.784,4.501-21.077,7.616c-99.669,50.539-156.203,140.373-163.328,149.12C 143.168,274.027, 143.168,282.005, 146.539,286.507
			S 168.235,316.16, 199.381,340.757C 201.408,342.016, 203.52,346.027, 204.16,350.507c 0.555,3.712, 0.149,7.744-2.069,10.837C 157.419,422.635, 118.421,459.947, 118.421,459.947
			S 105.771,469.397, 93.909,459.435C 20.757,397.76, 12.8,349.803, 12.8,349.803S 7.637,328.149, 13.355,316.139c 91.541-268.821, 357.397-327.808, 357.397-327.808
			s 33.088-9.365, 47.339-0.533c 63.275,31.573, 103.659,96.277, 103.659,96.277S 525.824,96.213, 516.715,103.765z" horiz-adv-x="533.333"  />
<glyph unicode="&#xe057;" d="M 310.857,480c-161.573,0-292.571-98.267-292.571-219.429c0-75.447, 50.834-142.007, 128.146-181.504
			C 146.432,78.555, 146.286,78.263, 146.286,77.714c0-45.714-32.219-93.513-35.986-98.926C 109.714-22.565, 109.129-25.783, 110.775-28.197C 112.494-30.72, 116.005-32, 121.234-32
			c 65.28,0, 119.406,60.526, 133.193,77.312C 272.713,42.642, 291.547,41.143, 310.857,41.143c 161.573,0, 292.571,98.267, 292.571,219.429S 472.43,480, 310.857,480z" horiz-adv-x="621.714"  />
<glyph unicode="&#xe058;" d="M 268.8,359.87c 11.643,6.201, 21.542,14.867, 30.417,24.766
			c 14.867,16.517, 26.662,38.741, 26.662,69.954c0,3.755, 0.038,8.211-0.512,11.624c-0.152,0.891, 0.228,1.119-0.626,1.138
			c-1.896,0.076-4.399-0.626-6.561-0.891c-2.010-0.247-4.058-0.626-5.935-1.005c-26.757-5.385-45.359-19.456-60.378-35.992
			c-8.609-9.481-16.384-20.328-21.732-33.356c-5.177-12.591-8.514-29.753-5.556-47.218C 243.845,349.080, 256.36,353.252, 268.8,359.87z M 392.552,146.821
			c-11.985,14.45-20.935,32.427-22.85,56.567c-2.143,26.795, 4.93,47.464, 15.151,63.545c 10.411,16.346, 24.007,29.051, 39.538,39.898
			c 0.36,0.607-1.536,2.389-2.389,3.413c-20.404,23.969-46.895,41.415-87.666,44.601c-14.62,1.138-30.094-0.171-42.42-2.769
			c-12.478-2.674-22.983-6.94-34.607-11.378c-5.423-2.067-11.15-4.267-17.673-5.31c-6.789-1.1-13.748-0.664-20.215,1.271
			c-11.624,3.451-21.675,9.045-33.090,12.876C 173.018,353.972, 155.307,356.153, 137.444,354.693c-38.95-3.129-66.067-19.646-85.637-42.667
			c-20.651-24.329-34.095-57.666-34.095-102.684c0-22.585, 2.731-42.818, 6.94-61.364c 8.439-37.148, 22.775-68.21, 40.031-96.863
			c 13.009-21.618, 27.193-41.358, 46.611-55.96c 9.747-7.339, 21.239-13.502, 36.883-14.393c 17.143-0.986, 29.62,4.873, 41.415,9.728
			c 8.059,3.319, 16.574,6.125, 25.903,8.23c 9.33,2.067, 20.177,3.015, 31.194,2.010c 10.562-0.986, 18.735-4.096, 27.022-7.206
			c 8.23-3.091, 16.194-6.334, 25.259-8.969c 9.178-2.693, 19.304-4.949, 29.563-3.3c 9.292,1.517, 17.446,5.575, 24.254,9.975
			c 13.748,8.913, 25.107,21.030, 35.366,33.090c 21.068,24.804, 37.376,53.76, 49.266,87.647l0,0.247 C 419.859,121.069, 404.651,132.257, 392.552,146.821z" horiz-adv-x="455.111"  />
<glyph unicode="&#xe059;" d="M 80.45,304.252l 0.033-194.973c0-17.722, 14.336-32.041, 32.058-32.041l 21.834-0.017
			l 0.017-66.543c0-16.582, 13.461-30.043, 30.010-30.043c 16.599,0, 30.043,13.477, 30.059,30.059l-0.017,66.543l 40.547,0 l 0.033-66.543
			c0-16.566, 13.461-30.059, 30.026-30.026c 16.582-0.017, 30.043,13.461, 30.043,30.043l-0.017,66.543l 21.9,0.017
			c 17.672-0.017, 32.058,14.336, 32.058,32.058l-0.033,194.973L 80.45,304.252z M 38.747,309.933c-16.582,0-30.043-13.461-30.043-30.043l 0.017-125.803
			c0-16.632, 13.444-30.043, 30.043-30.043c 16.599,0, 30.043,13.428, 30.026,30.043l0,125.82C 68.806,296.489, 55.329,309.933, 38.747,309.933z M 281.005,422.904
			l 20.975,38.284c 1.123,1.998, 0.38,4.542-1.652,5.682c-2.031,1.074-4.558,0.347-5.649-1.668L 273.507,426.521
			c-17.821,7.911-37.756,12.371-58.863,12.354c-21.042,0.017-40.977-4.426-58.731-12.305L 134.706,465.169C 133.599,467.2, 131.055,467.943, 129.057,466.82
			C 127.009,465.73, 126.282,463.17, 127.405,461.172l 20.975-38.251c-41.224-21.256-69.070-61.737-69.037-108.214l 270.617,0.033
			C 349.96,361.199, 322.164,401.598, 281.005,422.904z M 153.088,363.743c-6.227,0-11.314,5.070-11.314,11.33c0,6.243, 5.070,11.363, 11.314,11.363
			c 6.276,0, 11.363-5.137, 11.363-11.363C 164.451,368.83, 159.364,363.743, 153.088,363.743z M 276.298,363.759c-6.243-0.017-11.347,5.070-11.347,11.347
			c 0.017,6.21, 5.087,11.363, 11.363,11.363c 6.21-0.017, 11.33-5.153, 11.33-11.363C 287.645,368.83, 282.541,363.759, 276.298,363.759z
			 M 420.699,279.94c0,16.599-13.444,30.026-30.043,30.026c-16.582,0.017-30.026-13.444-30.026-30.043l 0.033-125.803
			c0-16.615, 13.428-30.026, 30.026-30.026s 30.026,13.428, 30.026,30.043L 420.699,279.94z" horiz-adv-x="429.419"  />
<glyph unicode="&#xe05b;" d="M 714.389,375.189c 31.199,0, 53.81,15.905, 53.81,45.254c0,28.755-23.833,45.271-53.81,45.271
			c-31.81,0-53.826-15.905-53.826-45.271C 660.563,391.094, 683.157,375.189, 714.389,375.189z M 472.84,75.834L 410.426,338.374l-102.202,0 l 87.882-303.368
			c 9.546-31.215, 25.435-52.62, 68.377-52.62c 42.975,0, 58.153,21.405, 68.36,52.62l 92.391,303.368l-86.297,0 L 472.84,75.834z M 659.291,338.358
			c-9.365,0-17.078-0.198-22.545-7.564c-2.51-3.402-6.012-9.579-6.012-20.579c0-11.479, 3.501-17.177, 6.012-20.579
			c 5.467-7.35, 13.18-7.399, 22.545-7.399c 3.188,0, 5.649,0, 5.649,0L 664.939,27.293 c0-8.902,0-25.352, 13.807-35.113
			c 7.234-5.087, 18.614-9.794, 34.75-9.794c 16.78,0, 27.764,4.674, 35.031,9.794c 13.807,9.761, 13.807,26.211, 13.807,35.113L 762.335,338.374 l-96.421,0 
			C 665.897,338.374, 662.478,338.358, 659.291,338.358z M 169.868,343.279c-105.819,0-161.495-72.175-161.495-174.922c0-103.986, 40.977-185.972, 160.273-185.972
			c 110.113,0, 160.867,74.009, 160.867,183.511C 329.513,270.493, 279.37,343.279, 169.868,343.279z M 168.646,38.673c-56.287,0-58.731,79.509-58.731,131.518
			c0,50.754, 4.278,116.819, 58.731,116.819c 51.993,0, 59.326-69.748, 59.326-116.819C 227.989,109.626, 224.917,38.673, 168.646,38.673z" horiz-adv-x="776.258"  />
<glyph unicode="&#xe05a;" d="M 14.464,213.467l0-164.827l 197.449-27.154l-0.165,190.72L 14.464,213.467z M 497.609,466.432
			L 235.703,428.197l0-193.719 l 261.906,2.085L 497.609,466.432 z M 235.337,210.816l 0.366-192.274l 261.906-36.974l 0.073,228.827L 235.337,210.816z M 14.318,397.787
			l 0.183-164.773l 197.431,1.134l-0.073,190.537L 14.318,397.787z"  />
<glyph unicode="&#x20;" horiz-adv-x="256" />
</font>
</defs>
</svg>
